  0
SECTION
  2
HEADER
  9
$ACADVER
  1
AC1018
  9
$ACADMAINTVER
 70
   104
  9
$DWGCODEPAGE
  3
ANSI_936
  9
$LASTSAVEDBY
  1
Administrator
  9
$INSBASE
 10
0.0
 20
0.0
 30
0.0
  9
$EXTMIN
 10
1404.807287296392
 20
203.5369968199983
 30
0.0
  9
$EXTMAX
 10
1443.515132621682
 20
282.6440848677611
 30
0.0
  9
$LIMMIN
 10
0.0
 20
0.0
  9
$LIMMAX
 10
12.0
 20
9.0
  9
$ORTHOMODE
 70
     1
  9
$REGENMODE
 70
     1
  9
$FILLMODE
 70
     1
  9
$QTEXTMODE
 70
     0
  9
$MIRRTEXT
 70
     0
  9
$LTSCALE
 40
1.0
  9
$ATTMODE
 70
     1
  9
$TEXTSIZE
 40
0.2
  9
$TRACEWID
 40
0.05
  9
$TEXTSTYLE
  7
STANDARD
  9
$CLAYER
  8
标注
  9
$CELTYPE
  6
ByLayer
  9
$CECOLOR
 62
   256
  9
$CELTSCALE
 40
1.0
  9
$DISPSILH
 70
     0
  9
$DIMSCALE
 40
1.0
  9
$DIMASZ
 40
0.65
  9
$DIMEXO
 40
0.88
  9
$DIMDLI
 40
0.015
  9
$DIMRND
 40
0.0
  9
$DIMDLE
 40
0.0
  9
$DIMEXE
 40
0.32
  9
$DIMTP
 40
0.0
  9
$DIMTM
 40
0.0
  9
$DIMTXT
 40
0.65
  9
$DIMCEN
 40
0.09
  9
$DIMTSZ
 40
0.0
  9
$DIMTOL
 70
     0
  9
$DIMLIM
 70
     0
  9
$DIMTIH
 70
     0
  9
$DIMTOH
 70
     0
  9
$DIMSE1
 70
     0
  9
$DIMSE2
 70
     0
  9
$DIMTAD
 70
     0
  9
$DIMZIN
 70
     8
  9
$DIMBLK
  1

  9
$DIMASO
 70
     1
  9
$DIMSHO
 70
     1
  9
$DIMPOST
  1
"
  9
$DIMAPOST
  1
"
  9
$DIMALT
 70
     0
  9
$DIMALTD
 70
     1
  9
$DIMALTF
 40
0.03937
  9
$DIMLFAC
 40
1.0
  9
$DIMTOFL
 70
     1
  9
$DIMTVP
 40
0.0
  9
$DIMTIX
 70
     0
  9
$DIMSOXD
 70
     0
  9
$DIMSAH
 70
     0
  9
$DIMBLK1
  1

  9
$DIMBLK2
  1

  9
$DIMSTYLE
  2
副本STANDARD
  9
$DIMCLRD
 70
   256
  9
$DIMCLRE
 70
   256
  9
$DIMCLRT
 70
   256
  9
$DIMTFAC
 40
1.0
  9
$DIMGAP
 40
0.3
  9
$DIMJUST
 70
     0
  9
$DIMSD1
 70
     0
  9
$DIMSD2
 70
     0
  9
$DIMTOLJ
 70
     1
  9
$DIMTZIN
 70
     8
  9
$DIMALTZ
 70
     8
  9
$DIMALTTZ
 70
     8
  9
$DIMUPT
 70
     0
  9
$DIMDEC
 70
     3
  9
$DIMTDEC
 70
     3
  9
$DIMALTU
 70
     2
  9
$DIMALTTD
 70
     1
  9
$DIMTXSTY
  7
STANDARD
  9
$DIMAUNIT
 70
     0
  9
$DIMADEC
 70
     0
  9
$DIMALTRND
 40
0.0
  9
$DIMAZIN
 70
     0
  9
$DIMDSEP
 70
    46
  9
$DIMATFIT
 70
     3
  9
$DIMFRAC
 70
     2
  9
$DIMLDRBLK
  1

  9
$DIMLUNIT
 70
     5
  9
$DIMLWD
 70
    -2
  9
$DIMLWE
 70
    -2
  9
$DIMTMOVE
 70
     2
  9
$LUNITS
 70
     2
  9
$LUPREC
 70
     4
  9
$SKETCHINC
 40
0.1
  9
$FILLETRAD
 40
10.0
  9
$AUNITS
 70
     0
  9
$AUPREC
 70
     0
  9
$MENU
  1
.
  9
$ELEVATION
 40
0.0
  9
$PELEVATION
 40
0.0
  9
$THICKNESS
 40
0.0
  9
$LIMCHECK
 70
     0
  9
$CHAMFERA
 40
0.0
  9
$CHAMFERB
 40
0.0
  9
$CHAMFERC
 40
0.0
  9
$CHAMFERD
 40
0.0
  9
$SKPOLY
 70
     0
  9
$TDCREATE
 40
2455434.724808658
  9
$TDUCREATE
 40
2455434.391475324
  9
$TDUPDATE
 40
2458690.417950406
  9
$TDUUPDATE
 40
2458690.084617072
  9
$TDINDWG
 40
0.6008881250
  9
$TDUSRTIMER
 40
0.6008709491
  9
$USRTIMER
 70
     1
  9
$ANGBASE
 50
0.0
  9
$ANGDIR
 70
     0
  9
$PDMODE
 70
     0
  9
$PDSIZE
 40
0.0
  9
$PLINEWID
 40
0.0
  9
$SPLFRAME
 70
     0
  9
$SPLINETYPE
 70
     6
  9
$SPLINESEGS
 70
     8
  9
$HANDSEED
  5
8469
  9
$SURFTAB1
 70
     6
  9
$SURFTAB2
 70
     6
  9
$SURFTYPE
 70
     6
  9
$SURFU
 70
     6
  9
$SURFV
 70
     6
  9
$UCSBASE
  2

  9
$UCSNAME
  2

  9
$UCSORG
 10
0.0
 20
0.0
 30
0.0
  9
$UCSXDIR
 10
1.0
 20
0.0
 30
0.0
  9
$UCSYDIR
 10
0.0
 20
1.0
 30
0.0
  9
$UCSORTHOREF
  2

  9
$UCSORTHOVIEW
 70
     0
  9
$UCSORGTOP
 10
0.0
 20
0.0
 30
0.0
  9
$UCSORGBOTTOM
 10
0.0
 20
0.0
 30
0.0
  9
$UCSORGLEFT
 10
0.0
 20
0.0
 30
0.0
  9
$UCSORGRIGHT
 10
0.0
 20
0.0
 30
0.0
  9
$UCSORGFRONT
 10
0.0
 20
0.0
 30
0.0
  9
$UCSORGBACK
 10
0.0
 20
0.0
 30
0.0
  9
$PUCSBASE
  2

  9
$PUCSNAME
  2

  9
$PUCSORG
 10
0.0
 20
0.0
 30
0.0
  9
$PUCSXDIR
 10
1.0
 20
0.0
 30
0.0
  9
$PUCSYDIR
 10
0.0
 20
1.0
 30
0.0
  9
$PUCSORTHOREF
  2

  9
$PUCSORTHOVIEW
 70
     0
  9
$PUCSORGTOP
 10
0.0
 20
0.0
 30
0.0
  9
$PUCSORGBOTTOM
 10
0.0
 20
0.0
 30
0.0
  9
$PUCSORGLEFT
 10
0.0
 20
0.0
 30
0.0
  9
$PUCSORGRIGHT
 10
0.0
 20
0.0
 30
0.0
  9
$PUCSORGFRONT
 10
0.0
 20
0.0
 30
0.0
  9
$PUCSORGBACK
 10
0.0
 20
0.0
 30
0.0
  9
$USERI1
 70
     0
  9
$USERI2
 70
     0
  9
$USERI3
 70
     0
  9
$USERI4
 70
     0
  9
$USERI5
 70
     0
  9
$USERR1
 40
0.0
  9
$USERR2
 40
0.0
  9
$USERR3
 40
0.0
  9
$USERR4
 40
0.0
  9
$USERR5
 40
2.5
  9
$WORLDVIEW
 70
     1
  9
$SHADEDGE
 70
     3
  9
$SHADEDIF
 70
    70
  9
$TILEMODE
 70
     1
  9
$MAXACTVP
 70
    64
  9
$PINSBASE
 10
0.0
 20
0.0
 30
0.0
  9
$PLIMCHECK
 70
     0
  9
$PEXTMIN
 10
1.000000000000000E+20
 20
1.000000000000000E+20
 30
1.000000000000000E+20
  9
$PEXTMAX
 10
-1.000000000000000E+20
 20
-1.000000000000000E+20
 30
-1.000000000000000E+20
  9
$PLIMMIN
 10
0.0
 20
0.0
  9
$PLIMMAX
 10
12.0
 20
9.0
  9
$UNITMODE
 70
     0
  9
$VISRETAIN
 70
     1
  9
$PLINEGEN
 70
     0
  9
$PSLTSCALE
 70
     1
  9
$TREEDEPTH
 70
  3020
  9
$CMLSTYLE
  2
Standard
  9
$CMLJUST
 70
     0
  9
$CMLSCALE
 40
1.0
  9
$PROXYGRAPHICS
 70
     1
  9
$MEASUREMENT
 70
     0
  9
$CELWEIGHT
370
    -1
  9
$ENDCAPS
280
     0
  9
$JOINSTYLE
280
     0
  9
$LWDISPLAY
290
     0
  9
$INSUNITS
 70
     0
  9
$HYPERLINKBASE
  1

  9
$STYLESHEET
  1

  9
$XEDIT
290
     1
  9
$CEPSNTYPE
380
     0
  9
$PSTYLEMODE
290
     1
  9
$FINGERPRINTGUID
  2
{7BAC09DB-C4D0-41DB-8C07-4C6808ADD930}
  9
$VERSIONGUID
  2
{0483A970-C5FF-4F48-BB8F-70E6E8469D75}
  9
$EXTNAMES
290
     1
  9
$PSVPSCALE
 40
0.0
  9
$OLESTARTUP
290
     0
  9
$SORTENTS
280
   127
  9
$INDEXCTL
280
     0
  9
$HIDETEXT
280
     0
  9
$XCLIPFRAME
290
     0
  9
$HALOGAP
280
     0
  9
$OBSCOLOR
 70
   257
  9
$OBSLTYPE
280
     0
  9
$INTERSECTIONDISPLAY
280
     0
  9
$INTERSECTIONCOLOR
 70
   257
  9
$DIMASSOC
280
     1
  9
$PROJECTNAME
  1

  0
ENDSEC
  0
SECTION
  2
CLASSES
  0
CLASS
  1
ACDBDICTIONARYWDFLT
  2
AcDbDictionaryWithDefault
  3
ObjectDBX Classes
 90
        0
 91
        1
280
     0
281
     0
  0
CLASS
  1
MATERIAL
  2
AcDbMaterial
  3
ObjectDBX Classes
 90
     1024
 91
        3
280
     0
281
     0
  0
CLASS
  1
VISUALSTYLE
  2
AcDbVisualStyle
  3
ObjectDBX Classes
 90
     4095
 91
       16
280
     0
281
     0
  0
CLASS
  1
SCALE
  2
AcDbScale
  3
ObjectDBX Classes
 90
     1153
 91
       33
280
     0
281
     0
  0
CLASS
  1
TABLESTYLE
  2
AcDbTableStyle
  3
ObjectDBX Classes
 90
     4095
 91
        1
280
     0
281
     0
  0
CLASS
  1
MLEADERSTYLE
  2
AcDbMLeaderStyle
  3
ACDB_MLEADERSTYLE_CLASS
 90
     4095
 91
        1
280
     0
281
     0
  0
CLASS
  1
VLO-VL
  2
vlo_VL
  3
VL|AutoLISP based application
 90
      129
 91
        1
280
     0
281
     0
  0
CLASS
  1
DICTIONARYVAR
  2
AcDbDictionaryVar
  3
ObjectDBX Classes
 90
        0
 91
        6
280
     0
281
     0
  0
CLASS
  1
CELLSTYLEMAP
  2
AcDbCellStyleMap
  3
ObjectDBX Classes
 90
     1152
 91
        1
280
     0
281
     0
  0
CLASS
  1
DIMASSOC
  2
AcDbDimAssoc
  3
"AcDbDimAssoc|Product Desc:     AcDim ARX App For Dimension|Company:          Autodesk, Inc.|WEB Address:      www.autodesk.com"
 90
        0
 91
        0
280
     0
281
     0
  0
CLASS
  1
SORTENTSTABLE
  2
AcDbSortentsTable
  3
ObjectDBX Classes
 90
        0
 91
        1
280
     0
281
     0
  0
CLASS
  1
ACDBPLACEHOLDER
  2
AcDbPlaceHolder
  3
ObjectDBX Classes
 90
        0
 91
        1
280
     0
281
     0
  0
CLASS
  1
LAYOUT
  2
AcDbLayout
  3
ObjectDBX Classes
 90
        0
 91
        2
280
     0
281
     0
  0
ENDSEC
  0
SECTION
  2
TABLES
  0
TABLE
  2
VPORT
  5
5F02
330
0
100
AcDbSymbolTable
 70
     1
  0
VPORT
  5
5F73
330
5F02
100
AcDbSymbolTableRecord
100
AcDbViewportTableRecord
  2
*ACTIVE
 70
     0
 10
0.0
 20
0.0
 11
1.0
 21
1.0
 12
1426.571713182035
 22
252.827093067097
 13
0.0
 23
0.0
 14
0.5
 24
0.5
 15
0.5
 25
0.5
 16
0.0
 26
0.0
 36
1.0
 17
0.0
 27
0.0
 37
0.0
 40
81.58859591738837
 41
2.205741626794258
 42
50.0
 43
0.0
 44
0.0
 50
0.0
 51
0.0
 71
     0
 72
  1000
 73
     1
 74
     3
 75
     0
 76
     0
 77
     0
 78
     0
281
     0
 65
     1
110
0.0
120
0.0
130
0.0
111
1.0
121
0.0
131
0.0
112
0.0
122
1.0
132
0.0
 79
     0
146
0.0
  0
ENDTAB
  0
TABLE
  2
LTYPE
  5
5EFF
330
0
100
AcDbSymbolTable
 70
     4
  0
LTYPE
  5
5F5C
330
5EFF
100
AcDbSymbolTableRecord
100
AcDbLinetypeTableRecord
  2
ByBlock
 70
     0
  3

 72
    65
 73
     0
 40
0.0
  0
LTYPE
  5
5F5D
330
5EFF
100
AcDbSymbolTableRecord
100
AcDbLinetypeTableRecord
  2
ByLayer
 70
     0
  3

 72
    65
 73
     0
 40
0.0
  0
LTYPE
  5
5F5E
330
5EFF
100
AcDbSymbolTableRecord
100
AcDbLinetypeTableRecord
  2
CONTINUOUS
 70
     0
  3
Solid line
 72
    65
 73
     0
 40
0.0
  0
LTYPE
  5
5F74
330
5EFF
100
AcDbSymbolTableRecord
100
AcDbLinetypeTableRecord
  2
CENTER2
 70
     0
  3
Center (.5x) ___ _ ___ _ ___ _ ___ _ ___ _ ___
 72
    65
 73
     4
 40
28.575
 49
19.05
 74
     0
 49
-3.174999999999998
 74
     0
 49
3.174999999999998
 74
     0
 49
-3.174999999999998
 74
     0
  0
LTYPE
  5
5F75
330
5EFF
100
AcDbSymbolTableRecord
100
AcDbLinetypeTableRecord
  2
HIDDEN2
 70
     0
  3
Hidden (.5x) _ _ _ _ _ _ _ _ _ _ _ _ _ _ _ _ _
 72
    65
 73
     2
 40
4.762499999999998
 49
3.174999999999998
 74
     0
 49
-1.587499999999999
 74
     0
  0
LTYPE
  5
7D79
330
5EFF
100
AcDbSymbolTableRecord
100
AcDbLinetypeTableRecord
  2
ACAD_ISO02W100
 70
     0
  3
ISO dash __ __ __ __ __ __ __ __ __ __ __ __ __
 72
    65
 73
     2
 40
15.0
 49
12.0
 74
     0
 49
-3.0
 74
     0
  0
ENDTAB
  0
TABLE
  2
LAYER
  5
5EFC
102
{ACAD_XDICTIONARY
360
61B7
102
}
330
0
100
AcDbSymbolTable
 70
     9
  0
LAYER
  5
5F56
102
{ACAD_XDICTIONARY
360
60F4
102
}
330
5EFC
100
AcDbSymbolTableRecord
100
AcDbLayerTableRecord
  2
0
 70
     0
 62
     7
  6
CONTINUOUS
370
    -3
390
5F09
  0
LAYER
  5
5F72
102
{ACAD_XDICTIONARY
360
60F6
102
}
330
5EFC
100
AcDbSymbolTableRecord
100
AcDbLayerTableRecord
  2
标注
 70
     0
 62
    80
  6
CONTINUOUS
370
    -3
390
5F09
  0
LAYER
  5
5F7D
102
{ACAD_XDICTIONARY
360
60F8
102
}
330
5EFC
100
AcDbSymbolTableRecord
100
AcDbLayerTableRecord
  2
中心线
 70
     0
 62
     1
  6
CENTER2
370
    -3
390
5F09
  0
LAYER
  5
5F7E
102
{ACAD_XDICTIONARY
360
60FA
102
}
330
5EFC
100
AcDbSymbolTableRecord
100
AcDbLayerTableRecord
  2
虚线
 70
     0
 62
     4
  6
HIDDEN2
370
    -3
390
5F09
  0
LAYER
  5
5F7F
330
5EFC
100
AcDbSymbolTableRecord
100
AcDbLayerTableRecord
  2
DEFPOINTS
 70
     0
 62
     7
  6
CONTINUOUS
290
     0
370
    -3
390
5F09
  0
LAYER
  5
7BC1
102
{ACAD_XDICTIONARY
360
7BC2
102
}
330
5EFC
100
AcDbSymbolTableRecord
100
AcDbLayerTableRecord
  2
细实线
 70
     0
 62
     7
  6
CONTINUOUS
370
     9
390
5F09
  0
LAYER
  5
7D7A
330
5EFC
100
AcDbSymbolTableRecord
100
AcDbLayerTableRecord
  2
标注线
 70
     0
 62
     3
  6
CONTINUOUS
370
     9
390
5F09
  0
LAYER
  5
7D7B
102
{ACAD_XDICTIONARY
360
7D7C
102
}
330
5EFC
100
AcDbSymbolTableRecord
100
AcDbLayerTableRecord
  2
粗实线
 70
     0
 62
     7
  6
CONTINUOUS
370
     9
390
5F09
1001
ACAECLAYERSTANDARD
1000

1000

  0
LAYER
  5
7F4B
102
{ACAD_XDICTIONARY
360
7F4C
102
}
330
5EFC
100
AcDbSymbolTableRecord
100
AcDbLayerTableRecord
  2
截面层
 70
     0
 62
     6
  6
CONTINUOUS
370
    13
390
5F09
  0
ENDTAB
  0
TABLE
  2
STYLE
  5
5EFD
330
0
100
AcDbSymbolTable
 70
     3
  0
STYLE
  5
5F57
330
5EFD
100
AcDbSymbolTableRecord
100
AcDbTextStyleTableRecord
  2
STANDARD
 70
     0
 40
0.0
 41
1.0
 50
0.0
 71
     0
 42
0.2
  3
arial.ttf
  4

1001
ACAD
1000
Arial
1071
       34
  0
STYLE
  5
7D7D
330
5EFD
100
AcDbSymbolTableRecord
100
AcDbTextStyleTableRecord
  2
Arial
 70
     0
 40
0.0
 41
1.0
 50
0.0
 71
     0
 42
2.5
  3
arial.ttf
  4

1001
ACAD
1000
Arial
1071
       34
  0
STYLE
  5
80E1
330
5EFD
100
AcDbSymbolTableRecord
100
AcDbTextStyleTableRecord
  2
Roman
 70
     0
 40
0.0
 41
1.0
 50
0.0
 71
     0
 42
0.065
  3
arial.ttf
  4

1001
ACAD
1000
Arial
1071
       34
  0
ENDTAB
  0
TABLE
  2
VIEW
  5
5F00
330
0
100
AcDbSymbolTable
 70
     0
  0
ENDTAB
  0
TABLE
  2
UCS
  5
5F01
330
0
100
AcDbSymbolTable
 70
     0
  0
ENDTAB
  0
TABLE
  2
APPID
  5
5F03
330
0
100
AcDbSymbolTable
 70
    30
  0
APPID
  5
5F58
330
5F03
100
AcDbSymbolTableRecord
100
AcDbRegAppTableRecord
  2
ACAD
 70
     0
  0
APPID
  5
5F5F
330
5F03
100
AcDbSymbolTableRecord
100
AcDbRegAppTableRecord
  2
ACADANNOTATIVE
 70
     0
  0
APPID
  5
5F69
330
5F03
100
AcDbSymbolTableRecord
100
AcDbRegAppTableRecord
  2
ACAD_MLEADERVER
 70
     0
  0
APPID
  5
5F84
330
5F03
100
AcDbSymbolTableRecord
100
AcDbRegAppTableRecord
  2
ACAECLAYERSTANDARD
 70
     0
  0
APPID
  5
5F85
330
5F03
100
AcDbSymbolTableRecord
100
AcDbRegAppTableRecord
  2
ACAD_DSTYLE_DIMEXT_LENGTH
 70
     0
  0
APPID
  5
5F86
330
5F03
100
AcDbSymbolTableRecord
100
AcDbRegAppTableRecord
  2
ACAD_DSTYLE_DIMEXT_ENABLED
 70
     0
  0
APPID
  5
5F87
330
5F03
100
AcDbSymbolTableRecord
100
AcDbRegAppTableRecord
  2
ACAD_DSTYLE_DIMJOGGED_JOGA
 70
     0
  0
APPID
  5
5F88
330
5F03
100
AcDbSymbolTableRecord
100
AcDbRegAppTableRecord
  2
ACAD_DSTYLE_DIMARC_LENGTH_
 70
     0
  0
APPID
  5
5F89
330
5F03
100
AcDbSymbolTableRecord
100
AcDbRegAppTableRecord
  2
ACAD_PSEXT
 70
     0
  0
APPID
  5
5F8A
330
5F03
100
AcDbSymbolTableRecord
100
AcDbRegAppTableRecord
  2
MCAD_NO_VIS
 70
     0
  0
APPID
  5
5F8B
330
5F03
100
AcDbSymbolTableRecord
100
AcDbRegAppTableRecord
  2
ACAD_TEMP_GRAPHIC
 70
     0
  0
APPID
  5
5F8C
330
5F03
100
AcDbSymbolTableRecord
100
AcDbRegAppTableRecord
  2
AD_DRAW
 70
     0
  0
APPID
  5
5F8D
330
5F03
100
AcDbSymbolTableRecord
100
AcDbRegAppTableRecord
  2
ACATTRIBSERVICES
 70
     0
  0
APPID
  5
5F8E
330
5F03
100
AcDbSymbolTableRecord
100
AcDbRegAppTableRecord
  2
DESIGNERASSEMBLIES
 70
     0
  0
APPID
  5
5F8F
330
5F03
100
AcDbSymbolTableRecord
100
AcDbRegAppTableRecord
  2
ACADM_DIM_EDIT
 70
     0
  0
APPID
  5
5F90
330
5F03
100
AcDbSymbolTableRecord
100
AcDbRegAppTableRecord
  2
AMDT_DM_ADJ
 70
     0
  0
APPID
  5
5F91
330
5F03
100
AcDbSymbolTableRecord
100
AcDbRegAppTableRecord
  2
ACAD_DSTYLE_DIMJAG
 70
     0
  0
APPID
  5
5F92
330
5F03
100
AcDbSymbolTableRecord
100
AcDbRegAppTableRecord
  2
ACAD_DSTYLE_DIMBREAK
 70
     0
  0
APPID
  5
5F93
330
5F03
100
AcDbSymbolTableRecord
100
AcDbRegAppTableRecord
  2
ACAD_DSTYLE_DIMTALN
 70
     0
  0
APPID
  5
5F94
330
5F03
100
AcDbSymbolTableRecord
100
AcDbRegAppTableRecord
  2
GENIUS_GENODEF_13
 70
     0
  0
APPID
  5
5F95
330
5F03
100
AcDbSymbolTableRecord
100
AcDbRegAppTableRecord
  2
GENIUS_GENOBJ-N-FIL_13
 70
     0
  0
APPID
  5
5F96
330
5F03
100
AcDbSymbolTableRecord
100
AcDbRegAppTableRecord
  2
ACAD_EXEMPT_FROM_CAD_STANDARDS
 70
     0
  0
APPID
  5
5F97
330
5F03
100
AcDbSymbolTableRecord
100
AcDbRegAppTableRecord
  2
ACAD_DSTYLE_DIM_LINETYPE
 70
     0
  0
APPID
  5
5F98
330
5F03
100
AcDbSymbolTableRecord
100
AcDbRegAppTableRecord
  2
ACAD_DSTYLE_DIM_EXT1_LINETYPE
 70
     0
  0
APPID
  5
5F99
330
5F03
100
AcDbSymbolTableRecord
100
AcDbRegAppTableRecord
  2
ACAD_DSTYLE_DIM_EXT2_LINETYPE
 70
     0
  0
APPID
  5
5F9A
330
5F03
100
AcDbSymbolTableRecord
100
AcDbRegAppTableRecord
  2
ACAD_DSTYLE_DIMRADIAL_EXTENSION
 70
     0
  0
APPID
  5
6488
330
5F03
100
AcDbSymbolTableRecord
100
AcDbRegAppTableRecord
  2
AcadAnnoPO
 70
     0
  0
APPID
  5
6F89
330
5F03
100
AcDbSymbolTableRecord
100
AcDbRegAppTableRecord
  2
GENIUS_GENFIL_13
 70
     0
  0
APPID
  5
6F8A
330
5F03
100
AcDbSymbolTableRecord
100
AcDbRegAppTableRecord
  2
GENIUS_GENOBJ-N-CHA_13
 70
     0
  0
APPID
  5
7D80
330
5F03
100
AcDbSymbolTableRecord
100
AcDbRegAppTableRecord
  2
ACAD_DSTYLE_DIMJOGGED_JOGANGLE_SYMBOL
 70
     0
  0
ENDTAB
  0
TABLE
  2
DIMSTYLE
  5
5F04
330
0
100
AcDbSymbolTable
 70
    12
100
AcDbDimStyleTable
 71
     2
340
5F9B
340
5F59
  0
DIMSTYLE
105
5F59
330
5F04
100
AcDbSymbolTableRecord
100
AcDbDimStyleTableRecord
  2
STANDARD
 70
     0
 41
0.65
 73
     0
 74
     0
140
0.65
176
     3
177
     3
178
     3
271
     3
272
     3
276
     2
277
     5
279
     2
284
     8
285
     8
286
     8
340
5F57
371
    13
372
    13
1001
ACAD_DSTYLE_DIMJAG
1070
   388
1040
1.5
1001
ACAD_DSTYLE_DIMTALN
1070
   392
1070
     0
1001
ACAD_DSTYLE_DIM_LINETYPE
1070
   380
1005
5F5E
1001
ACAD_DSTYLE_DIM_EXT1_LINETYPE
1070
   381
1005
5F5E
1001
ACAD_DSTYLE_DIM_EXT2_LINETYPE
1070
   382
1005
5F5E
  0
DIMSTYLE
105
5F9B
102
{ACAD_REACTORS
330
81F7
330
8205
330
821D
330
822B
330
8239
330
8247
330
8255
330
8263
330
82AB
330
82E3
102
}
330
5F04
100
AcDbSymbolTableRecord
100
AcDbDimStyleTableRecord
  2
副本STANDARD
 70
     0
  3
"
  4
"
 41
0.65
 42
0.88
 43
0.015
 44
0.32
 73
     0
 74
     0
 78
     8
140
0.65
143
0.03937
147
0.3
171
     1
172
     1
176
   256
177
   256
178
   256
271
     3
272
     3
274
     1
276
     2
277
     5
279
     2
284
     8
285
     8
286
     8
340
5F57
1001
ACAD_DSTYLE_DIMJAG
1070
   388
1040
1.5
1001
ACAD_DSTYLE_DIMTALN
1070
   392
1070
     0
  0
DIMSTYLE
105
7BC3
330
5F04
100
AcDbSymbolTableRecord
100
AcDbDimStyleTableRecord
  2
毫米英寸Standard
 70
     0
  3
mm
  4
"
 41
14.0
 42
20.0
 44
8.0
 73
     0
 74
     0
 78
     8
 79
     2
140
14.0
143
0.03937
147
8.0
170
     1
171
     3
172
     1
176
   256
177
   256
178
   256
179
     1
271
     1
272
     1
273
     7
274
     3
278
    44
340
5F57
1001
ACAD_DSTYLE_DIMBREAK
1070
   391
1040
0.125
1001
ACAD_DSTYLE_DIMJAG
1070
   388
1040
1.5
1001
ACAD_DSTYLE_DIMTALN
1070
   392
1070
     0
  0
DIMSTYLE
105
7BC4
330
5F04
100
AcDbSymbolTableRecord
100
AcDbDimStyleTableRecord
  2
inch
 70
     0
  3
"
  4
"
 41
14.0
 42
20.0
 44
8.0
 73
     0
 74
     0
 78
     8
 79
     2
140
14.0
143
0.03937
144
0.03937007874
147
8.0
171
     3
172
     1
176
   256
177
   256
178
   256
179
     1
271
     3
272
     3
273
     7
274
     3
276
     2
277
     5
278
    44
340
5F57
  0
DIMSTYLE
105
7BC5
330
5F04
100
AcDbSymbolTableRecord
100
AcDbDimStyleTableRecord
  2
毫米英寸
 70
     0
  3
mm
  4
"
 41
20.0
 42
20.0
 43
3.75
 44
5.0
 45
0.0005
 73
     0
 74
     0
 78
     8
140
20.0
141
2.5
143
0.03937007874
147
2.0
170
     1
171
     3
172
     1
176
   256
177
   256
178
   256
179
     1
271
     1
272
     1
273
     7
274
     3
276
     2
283
     0
284
     8
285
    12
340
5F57
371
     9
372
     9
1001
ACAD_DSTYLE_DIMBREAK
1070
   391
1040
3.75
1001
ACAD_DSTYLE_DIMJAG
1070
   388
1040
1.5
1001
ACAD_DSTYLE_DIMTALN
1070
   392
1070
     0
1001
ACAD_DSTYLE_DIMEXT_LENGTH
1070
   378
1040
8.0
1001
ACAD_DSTYLE_DIM_LINETYPE
1070
   380
1005
5F5D
  0
DIMSTYLE
105
7D7E
330
5F04
100
AcDbSymbolTableRecord
100
AcDbDimStyleTableRecord
  2
ISO-25
 70
     0
 41
17.0
 42
10.0
 43
3.75
 44
10.0
 73
     0
 74
     0
 78
     8
 79
     2
140
17.0
141
2.5
143
0.03937007874016
147
4.0
171
     3
172
     1
176
     3
177
     3
178
     3
271
     1
272
     1
274
     3
283
     0
284
     8
340
5F57
371
     9
372
     9
1001
ACAD_DSTYLE_DIMJAG
1070
   388
1040
1.5
1001
ACAD_DSTYLE_DIMTALN
1070
   392
1070
     0
1001
ACAD_DSTYLE_DIMEXT_LENGTH
1070
   378
1040
1.25
1001
ACAD_DSTYLE_DIMJOGGED_JOGANGLE_SYMBOL
1070
   384
1040
1.570796326794896
  0
DIMSTYLE
105
7D7F
330
5F04
100
AcDbSymbolTableRecord
100
AcDbDimStyleTableRecord
  2
英寸
 70
     0
  3
"
  4
"
 41
16.0
 42
22.0
 44
8.0
 73
     0
 74
     0
 78
     8
 79
     2
140
16.0
143
0.03937
144
0.03937007874
147
5.0
171
     3
172
     1
176
   256
177
   256
178
   256
179
     1
271
     3
272
     3
273
     7
274
     3
276
     2
277
     5
340
7D7D
371
    13
372
    13
1001
ACAD_DSTYLE_DIMBREAK
1070
   391
1040
0.125
1001
ACAD_DSTYLE_DIMJAG
1070
   388
1040
1.5
1001
ACAD_DSTYLE_DIMTALN
1070
   392
1070
     0
1001
ACAD_DSTYLE_DIMEXT_LENGTH
1070
   378
1040
8.0
1001
ACAD_DSTYLE_DIM_LINETYPE
1070
   380
1005
5F5E
1001
ACAD_DSTYLE_DIM_EXT1_LINETYPE
1070
   381
1005
5F5E
1001
ACAD_DSTYLE_DIM_EXT2_LINETYPE
1070
   382
1005
5F5E
  0
DIMSTYLE
105
7F4D
330
5F04
100
AcDbSymbolTableRecord
100
AcDbDimStyleTableRecord
  2
副本ISO-25
 70
     0
 41
15.0
 42
0.625
 43
3.75
 44
1.25
 73
     0
 77
     1
 78
     8
140
15.0
141
2.5
143
0.03937007874016
147
0.625
171
     1
172
     1
176
     6
177
     6
271
     2
272
     2
274
     1
278
    44
283
     0
284
     8
340
5F57
371
    15
372
    15
  0
DIMSTYLE
105
7F4E
330
5F04
100
AcDbSymbolTableRecord
100
AcDbDimStyleTableRecord
  2
XIAO
 70
     0
 41
3.5
 42
3.0
 43
1.0
 44
1.0
 73
     0
 74
     0
 77
     1
 78
     8
140
4.0
141
1.5
143
0.03937007874016
147
1.0
171
     3
172
     1
179
     1
271
     1
272
     1
274
     3
278
    44
283
     0
284
     8
340
5F57
  0
DIMSTYLE
105
7F4F
330
5F04
100
AcDbSymbolTableRecord
100
AcDbDimStyleTableRecord
  2
090319-
 70
     0
 41
16.0
 42
20.0
 43
1.5
 44
3.0
 73
     0
 74
     0
 77
     1
 78
     8
140
20.0
141
3.0
143
0.03937007874016
147
7.0
171
     3
172
     1
179
     1
271
     2
272
     2
274
     3
278
    44
283
     0
284
     8
340
5F57
  0
DIMSTYLE
105
7F50
330
5F04
100
AcDbSymbolTableRecord
100
AcDbDimStyleTableRecord
  2
副本 (100818)Standard
 70
     0
  4
"
 41
16.0
 42
0.0
 44
7.0
 78
     8
 79
     2
140
20.0
143
0.03937
147
5.0
171
     3
172
     1
176
   256
177
   256
178
   256
179
     1
271
     1
272
     1
273
     7
274
     3
278
    44
340
5F57
341
7F47
  0
DIMSTYLE
105
80E2
330
5F04
100
AcDbSymbolTableRecord
100
AcDbDimStyleTableRecord
  2
英寸毫米
 70
     0
  3
mm
  4
"
 41
18.0
 42
22.0
 44
8.0
 73
     0
 74
     0
 78
     8
 79
     2
140
18.0
143
0.03937
147
5.0
170
     1
171
     3
172
     1
176
   256
177
   256
178
   256
179
     1
271
     0
272
     0
273
     7
274
     3
278
    44
340
5F57
1001
ACAD_DSTYLE_DIMJOGGED_JOGANGLE_SYMBOL
1070
   384
1040
0.7853981633974483
1001
ACAD_DSTYLE_DIMJAG
1070
   388
1040
1.5
1001
ACAD_DSTYLE_DIMTALN
1070
   392
1070
     0
1001
ACAD_DSTYLE_DIMEXT_LENGTH
1070
   378
1040
8.0
  0
ENDTAB
  0
TABLE
  2
BLOCK_RECORD
  5
5EFB
330
0
100
AcDbSymbolTable
 70
    79
  0
BLOCK_RECORD
  5
5F6E
102
{ACAD_XDICTIONARY
360
654F
102
}
330
5EFB
100
AcDbSymbolTableRecord
100
AcDbBlockTableRecord
  2
*Model_Space
340
5F71
  0
BLOCK_RECORD
  5
5F6A
330
5EFB
100
AcDbSymbolTableRecord
100
AcDbBlockTableRecord
  2
*Paper_Space
340
5F6D
  0
BLOCK_RECORD
  5
7651
330
5EFB
100
AcDbSymbolTableRecord
100
AcDbBlockTableRecord
  2
*D0
340
0
  0
BLOCK_RECORD
  5
765F
330
5EFB
100
AcDbSymbolTableRecord
100
AcDbBlockTableRecord
  2
*D1
340
0
  0
BLOCK_RECORD
  5
766D
330
5EFB
100
AcDbSymbolTableRecord
100
AcDbBlockTableRecord
  2
*D2
340
0
  0
BLOCK_RECORD
  5
767B
330
5EFB
100
AcDbSymbolTableRecord
100
AcDbBlockTableRecord
  2
*D3
340
0
  0
BLOCK_RECORD
  5
7689
330
5EFB
100
AcDbSymbolTableRecord
100
AcDbBlockTableRecord
  2
*D4
340
0
  0
BLOCK_RECORD
  5
7697
330
5EFB
100
AcDbSymbolTableRecord
100
AcDbBlockTableRecord
  2
*D5
340
0
  0
BLOCK_RECORD
  5
76A5
330
5EFB
100
AcDbSymbolTableRecord
100
AcDbBlockTableRecord
  2
*D6
340
0
  0
BLOCK_RECORD
  5
76B3
330
5EFB
100
AcDbSymbolTableRecord
100
AcDbBlockTableRecord
  2
*D7
340
0
  0
BLOCK_RECORD
  5
76BD
330
5EFB
100
AcDbSymbolTableRecord
100
AcDbBlockTableRecord
  2
*D8
340
0
  0
BLOCK_RECORD
  5
76EB
330
5EFB
100
AcDbSymbolTableRecord
100
AcDbBlockTableRecord
  2
*D9
340
0
  0
BLOCK_RECORD
  5
770D
330
5EFB
100
AcDbSymbolTableRecord
100
AcDbBlockTableRecord
  2
*D10
340
0
  0
BLOCK_RECORD
  5
7745
330
5EFB
100
AcDbSymbolTableRecord
100
AcDbBlockTableRecord
  2
*D11
340
0
  0
BLOCK_RECORD
  5
774F
330
5EFB
100
AcDbSymbolTableRecord
100
AcDbBlockTableRecord
  2
*D12
340
0
  0
BLOCK_RECORD
  5
7765
330
5EFB
100
AcDbSymbolTableRecord
100
AcDbBlockTableRecord
  2
*D13
340
0
  0
BLOCK_RECORD
  5
7773
330
5EFB
100
AcDbSymbolTableRecord
100
AcDbBlockTableRecord
  2
*D14
340
0
  0
BLOCK_RECORD
  5
7781
330
5EFB
100
AcDbSymbolTableRecord
100
AcDbBlockTableRecord
  2
*D15
340
0
  0
BLOCK_RECORD
  5
779B
330
5EFB
100
AcDbSymbolTableRecord
100
AcDbBlockTableRecord
  2
*D16
340
0
  0
BLOCK_RECORD
  5
77A5
330
5EFB
100
AcDbSymbolTableRecord
100
AcDbBlockTableRecord
  2
*D17
340
0
  0
BLOCK_RECORD
  5
77AF
330
5EFB
100
AcDbSymbolTableRecord
100
AcDbBlockTableRecord
  2
*D18
340
0
  0
BLOCK_RECORD
  5
7955
330
5EFB
100
AcDbSymbolTableRecord
100
AcDbBlockTableRecord
  2
*D19
340
0
  0
BLOCK_RECORD
  5
7962
330
5EFB
100
AcDbSymbolTableRecord
100
AcDbBlockTableRecord
  2
*D20
340
0
  0
BLOCK_RECORD
  5
796F
330
5EFB
100
AcDbSymbolTableRecord
100
AcDbBlockTableRecord
  2
*D21
340
0
  0
BLOCK_RECORD
  5
797C
330
5EFB
100
AcDbSymbolTableRecord
100
AcDbBlockTableRecord
  2
*D22
340
0
  0
BLOCK_RECORD
  5
7989
330
5EFB
100
AcDbSymbolTableRecord
100
AcDbBlockTableRecord
  2
*D23
340
0
  0
BLOCK_RECORD
  5
7996
330
5EFB
100
AcDbSymbolTableRecord
100
AcDbBlockTableRecord
  2
*D24
340
0
  0
BLOCK_RECORD
  5
79A3
330
5EFB
100
AcDbSymbolTableRecord
100
AcDbBlockTableRecord
  2
*D25
340
0
  0
BLOCK_RECORD
  5
79B0
330
5EFB
100
AcDbSymbolTableRecord
100
AcDbBlockTableRecord
  2
*D26
340
0
  0
BLOCK_RECORD
  5
79B9
330
5EFB
100
AcDbSymbolTableRecord
100
AcDbBlockTableRecord
  2
*D27
340
0
  0
BLOCK_RECORD
  5
79C2
330
5EFB
100
AcDbSymbolTableRecord
100
AcDbBlockTableRecord
  2
*D28
340
0
  0
BLOCK_RECORD
  5
79CF
330
5EFB
100
AcDbSymbolTableRecord
100
AcDbBlockTableRecord
  2
*D29
340
0
  0
BLOCK_RECORD
  5
79DC
330
5EFB
100
AcDbSymbolTableRecord
100
AcDbBlockTableRecord
  2
*D30
340
0
  0
BLOCK_RECORD
  5
79E5
330
5EFB
100
AcDbSymbolTableRecord
100
AcDbBlockTableRecord
  2
*D31
340
0
  0
BLOCK_RECORD
  5
79EE
330
5EFB
100
AcDbSymbolTableRecord
100
AcDbBlockTableRecord
  2
*D32
340
0
  0
BLOCK_RECORD
  5
79FB
330
5EFB
100
AcDbSymbolTableRecord
100
AcDbBlockTableRecord
  2
*D33
340
0
  0
BLOCK_RECORD
  5
7A08
330
5EFB
100
AcDbSymbolTableRecord
100
AcDbBlockTableRecord
  2
*D34
340
0
  0
BLOCK_RECORD
  5
7A15
330
5EFB
100
AcDbSymbolTableRecord
100
AcDbBlockTableRecord
  2
*D35
340
0
  0
BLOCK_RECORD
  5
7A1E
330
5EFB
100
AcDbSymbolTableRecord
100
AcDbBlockTableRecord
  2
*D36
340
0
  0
BLOCK_RECORD
  5
7A27
330
5EFB
100
AcDbSymbolTableRecord
100
AcDbBlockTableRecord
  2
*D37
340
0
  0
BLOCK_RECORD
  5
7C8D
330
5EFB
100
AcDbSymbolTableRecord
100
AcDbBlockTableRecord
  2
*D38
340
0
  0
BLOCK_RECORD
  5
7C9B
330
5EFB
100
AcDbSymbolTableRecord
100
AcDbBlockTableRecord
  2
*D39
340
0
  0
BLOCK_RECORD
  5
7CA9
330
5EFB
100
AcDbSymbolTableRecord
100
AcDbBlockTableRecord
  2
*D40
340
0
  0
BLOCK_RECORD
  5
7CB9
330
5EFB
100
AcDbSymbolTableRecord
100
AcDbBlockTableRecord
  2
*D41
340
0
  0
BLOCK_RECORD
  5
7CC7
330
5EFB
100
AcDbSymbolTableRecord
100
AcDbBlockTableRecord
  2
*D42
340
0
  0
BLOCK_RECORD
  5
7CD5
330
5EFB
100
AcDbSymbolTableRecord
100
AcDbBlockTableRecord
  2
*D43
340
0
  0
BLOCK_RECORD
  5
7CE3
330
5EFB
100
AcDbSymbolTableRecord
100
AcDbBlockTableRecord
  2
*D44
340
0
  0
BLOCK_RECORD
  5
7CF1
330
5EFB
100
AcDbSymbolTableRecord
100
AcDbBlockTableRecord
  2
*D45
340
0
  0
BLOCK_RECORD
  5
7CFF
330
5EFB
100
AcDbSymbolTableRecord
100
AcDbBlockTableRecord
  2
*D46
340
0
  0
BLOCK_RECORD
  5
7D0F
330
5EFB
100
AcDbSymbolTableRecord
100
AcDbBlockTableRecord
  2
*D47
340
0
  0
BLOCK_RECORD
  5
7E38
330
5EFB
100
AcDbSymbolTableRecord
100
AcDbBlockTableRecord
  2
*D48
340
0
  0
BLOCK_RECORD
  5
7E46
330
5EFB
100
AcDbSymbolTableRecord
100
AcDbBlockTableRecord
  2
*D49
340
0
  0
BLOCK_RECORD
  5
7E54
330
5EFB
100
AcDbSymbolTableRecord
100
AcDbBlockTableRecord
  2
*D50
340
0
  0
BLOCK_RECORD
  5
7E62
330
5EFB
100
AcDbSymbolTableRecord
100
AcDbBlockTableRecord
  2
*D51
340
0
  0
BLOCK_RECORD
  5
7E70
330
5EFB
100
AcDbSymbolTableRecord
100
AcDbBlockTableRecord
  2
*D52
340
0
  0
BLOCK_RECORD
  5
7E7E
330
5EFB
100
AcDbSymbolTableRecord
100
AcDbBlockTableRecord
  2
*D53
340
0
  0
BLOCK_RECORD
  5
7E8C
330
5EFB
100
AcDbSymbolTableRecord
100
AcDbBlockTableRecord
  2
*D54
340
0
  0
BLOCK_RECORD
  5
7E9C
330
5EFB
100
AcDbSymbolTableRecord
100
AcDbBlockTableRecord
  2
*D55
340
0
  0
BLOCK_RECORD
  5
7EAC
330
5EFB
100
AcDbSymbolTableRecord
100
AcDbBlockTableRecord
  2
*D56
340
0
  0
BLOCK_RECORD
  5
7F47
330
5EFB
100
AcDbSymbolTableRecord
100
AcDbBlockTableRecord
  2
_Oblique
340
0
310
2800000020000000200000000100080000000000000400000000000000000000000000000000000000000000000080000080000000808000800000008000800080800000C0C0C000C0DCC000F0CAA6000020400000206000002080000020A0000020C0000020E00000400000004020000040400000406000004080000040A0
310
000040C0000040E00000600000006020000060400000606000006080000060A0000060C0000060E00000800000008020000080400000806000008080000080A0000080C0000080E00000A0000000A0200000A0400000A0600000A0800000A0A00000A0C00000A0E00000C0000000C0200000C0400000C0600000C0800000C0
310
A00000C0C00000C0E00000E0000000E0200000E0400000E0600000E0800000E0A00000E0C00000E0E00040000000400020004000400040006000400080004000A0004000C0004000E00040200000402020004020400040206000402080004020A0004020C0004020E000404000004040200040404000404060004040800040
310
40A0004040C0004040E00040600000406020004060400040606000406080004060A0004060C0004060E00040800000408020004080400040806000408080004080A0004080C0004080E00040A0000040A0200040A0400040A0600040A0800040A0A00040A0C00040A0E00040C0000040C0200040C0400040C0600040C08000
310
40C0A00040C0C00040C0E00040E0000040E0200040E0400040E0600040E0800040E0A00040E0C00040E0E00080000000800020008000400080006000800080008000A0008000C0008000E00080200000802020008020400080206000802080008020A0008020C0008020E00080400000804020008040400080406000804080
310
008040A0008040C0008040E00080600000806020008060400080606000806080008060A0008060C0008060E00080800000808020008080400080806000808080008080A0008080C0008080E00080A0000080A0200080A0400080A0600080A0800080A0A00080A0C00080A0E00080C0000080C0200080C0400080C0600080C0
310
800080C0A00080C0C00080C0E00080E0000080E0200080E0400080E0600080E0800080E0A00080E0C00080E0E000C0000000C0002000C0004000C0006000C0008000C000A000C000C000C000E000C0200000C0202000C0204000C0206000C0208000C020A000C020C000C020E000C0400000C0402000C0404000C0406000C0
310
408000C040A000C040C000C040E000C0600000C0602000C0604000C0606000C0608000C060A000C060C000C060E000C0800000C0802000C0804000C0806000C0808000C080A000C080C000C080E000C0A00000C0A02000C0A04000C0A06000C0A08000C0A0A000C0A0C000C0A0E000C0C00000C0C02000C0C04000C0C06000
310
C0C08000C0C0A000F0FBFF00A4A0A000808080000000FF0000FF000000FFFF00FF000000FF00FF00FFFF0000FFFFFF00000000000000000000000000000000000000000000000000000000000000000000FF0000000000000000000000000000000000000000000000000000000000000000FF000000000000000000000000
310
0000000000000000000000000000000000000000FF0000000000000000000000000000000000000000000000000000000000000000FF0000000000000000000000000000000000000000000000000000000000000000FF0000000000000000000000000000000000000000000000000000000000000000FF00000000000000
310
00000000000000000000000000000000000000000000000000FF0000000000000000000000000000000000000000000000000000000000000000FF0000000000000000000000000000000000000000000000000000000000000000FF0000000000000000000000000000000000000000000000000000000000000000FF0000
310
000000000000000000000000000000000000000000000000000000000000FF0000000000000000000000000000000000000000000000000000000000000000FF0000000000000000000000000000000000000000000000000000000000000000FF000000000000000000000000000000000000000000000000000000000000
310
0000FF0000000000000000000000000000000000000000000000000000000000000000FF0000000000000000000000000000000000000000000000000000000000000000FF0000000000000000000000000000000000000000000000000000000000000000FF00000000000000000000000000000000000000000000000000
310
00000000000000FF0000000000000000000000000000000000000000000000000000000000000000FF0000000000000000000000000000000000000000000000000000000000000000FF0000000000000000000000000000000000000000000000000000000000000000FF0000000000000000000000000000000000000000
310
000000000000000000000000FF0000000000000000000000000000000000000000000000000000000000000000FF0000000000000000000000000000000000000000000000000000000000000000FF0000000000000000000000000000000000000000000000000000000000000000FF000000000000000000000000000000
310
0000000000000000000000000000000000FF0000000000000000000000000000000000000000000000000000000000000000FF0000000000000000000000000000000000000000000000000000000000000000FF0000000000000000000000000000000000000000000000000000000000000000FF00000000000000000000
310
00000000000000000000000000000000000000000000FF000000000000000000000000000000000000000000000000000000000000000000
  0
BLOCK_RECORD
  5
8008
330
5EFB
100
AcDbSymbolTableRecord
100
AcDbBlockTableRecord
  2
*D58
340
0
  0
BLOCK_RECORD
  5
8016
330
5EFB
100
AcDbSymbolTableRecord
100
AcDbBlockTableRecord
  2
*D59
340
0
  0
BLOCK_RECORD
  5
8024
330
5EFB
100
AcDbSymbolTableRecord
100
AcDbBlockTableRecord
  2
*D60
340
0
  0
BLOCK_RECORD
  5
8032
330
5EFB
100
AcDbSymbolTableRecord
100
AcDbBlockTableRecord
  2
*D61
340
0
  0
BLOCK_RECORD
  5
8040
330
5EFB
100
AcDbSymbolTableRecord
100
AcDbBlockTableRecord
  2
*D62
340
0
  0
BLOCK_RECORD
  5
804E
330
5EFB
100
AcDbSymbolTableRecord
100
AcDbBlockTableRecord
  2
*D63
340
0
  0
BLOCK_RECORD
  5
805C
330
5EFB
100
AcDbSymbolTableRecord
100
AcDbBlockTableRecord
  2
*D64
340
0
  0
BLOCK_RECORD
  5
8076
330
5EFB
100
AcDbSymbolTableRecord
100
AcDbBlockTableRecord
  2
*D65
340
0
  0
BLOCK_RECORD
  5
8080
330
5EFB
100
AcDbSymbolTableRecord
100
AcDbBlockTableRecord
  2
*D66
340
0
  0
BLOCK_RECORD
  5
8090
330
5EFB
100
AcDbSymbolTableRecord
100
AcDbBlockTableRecord
  2
*D67
340
0
  0
BLOCK_RECORD
  5
81F8
330
5EFB
100
AcDbSymbolTableRecord
100
AcDbBlockTableRecord
  2
*D68
340
0
  0
BLOCK_RECORD
  5
8206
330
5EFB
100
AcDbSymbolTableRecord
100
AcDbBlockTableRecord
  2
*D69
340
0
  0
BLOCK_RECORD
  5
821E
330
5EFB
100
AcDbSymbolTableRecord
100
AcDbBlockTableRecord
  2
*D70
340
0
  0
BLOCK_RECORD
  5
822C
330
5EFB
100
AcDbSymbolTableRecord
100
AcDbBlockTableRecord
  2
*D71
340
0
  0
BLOCK_RECORD
  5
823A
330
5EFB
100
AcDbSymbolTableRecord
100
AcDbBlockTableRecord
  2
*D72
340
0
  0
BLOCK_RECORD
  5
8248
330
5EFB
100
AcDbSymbolTableRecord
100
AcDbBlockTableRecord
  2
*D73
340
0
  0
BLOCK_RECORD
  5
8256
330
5EFB
100
AcDbSymbolTableRecord
100
AcDbBlockTableRecord
  2
*D74
340
0
  0
BLOCK_RECORD
  5
8264
330
5EFB
100
AcDbSymbolTableRecord
100
AcDbBlockTableRecord
  2
*D75
340
0
  0
BLOCK_RECORD
  5
82AC
330
5EFB
100
AcDbSymbolTableRecord
100
AcDbBlockTableRecord
  2
*D76
340
0
  0
BLOCK_RECORD
  5
82DA
330
5EFB
100
AcDbSymbolTableRecord
100
AcDbBlockTableRecord
  2
*D77
340
0
  0
BLOCK_RECORD
  5
82E4
330
5EFB
100
AcDbSymbolTableRecord
100
AcDbBlockTableRecord
  2
*D78
340
0
  0
ENDTAB
  0
ENDSEC
  0
SECTION
  2
BLOCKS
  0
BLOCK
  5
5F6F
330
5F6E
100
AcDbEntity
  8
0
100
AcDbBlockBegin
  2
*Model_Space
 70
     0
 10
0.0
 20
0.0
 30
0.0
  3
*Model_Space
  1

  0
ENDBLK
  5
5F70
330
5F6E
100
AcDbEntity
  8
0
100
AcDbBlockEnd
  0
BLOCK
  5
5F6B
330
5F6A
100
AcDbEntity
 67
     1
  8
0
100
AcDbBlockBegin
  2
*Paper_Space
 70
     0
 10
0.0
 20
0.0
 30
0.0
  3
*Paper_Space
  1

  0
ENDBLK
  5
5F6C
330
5F6A
100
AcDbEntity
 67
     1
  8
0
100
AcDbBlockEnd
  0
BLOCK
  5
7652
330
7651
100
AcDbEntity
  8
0
100
AcDbBlockBegin
  2
*D0
 70
     1
 10
0.0
 20
0.0
 30
0.0
  3
*D0
  1

  0
LINE
  5
77CA
330
7651
100
AcDbEntity
  8
标注
370
    -2
100
AcDbLine
 10
1094.219037908409
 20
138.162998433621
 30
0.0
 11
1094.219037908409
 21
135.1913252291895
 31
0.0
  0
LINE
  5
77CB
330
7651
100
AcDbEntity
  8
标注
370
    -2
100
AcDbLine
 10
1112.219037908332
 20
138.162998433621
 30
0.0
 11
1112.219037908332
 21
135.1913252291895
 31
0.0
  0
LINE
  5
77CC
330
7651
100
AcDbEntity
  8
标注
370
    -2
100
AcDbLine
 10
1094.869037908409
 20
135.5113252291895
 30
0.0
 11
1102.323574061167
 21
135.5113252291895
 31
0.0
  0
LINE
  5
77CD
330
7651
100
AcDbEntity
  8
标注
370
    -2
100
AcDbLine
 10
1111.569037908331
 20
135.5113252291895
 30
0.0
 11
1104.114501755574
 21
135.5113252291895
 31
0.0
  0
SOLID
  5
77CE
330
7651
100
AcDbEntity
  8
标注
100
AcDbTrace
 10
1094.869037908409
 20
135.6196585625228
 30
0.0
 11
1094.869037908409
 21
135.4029918958562
 31
0.0
 12
1094.219037908409
 22
135.5113252291895
 32
0.0
 13
1094.219037908409
 23
135.5113252291895
 33
0.0
  0
SOLID
  5
77CF
330
7651
100
AcDbEntity
  8
标注
100
AcDbTrace
 10
1111.569037908331
 20
135.6196585625228
 30
0.0
 11
1111.569037908331
 21
135.4029918958562
 31
0.0
 12
1112.219037908332
 22
135.5113252291895
 32
0.0
 13
1112.219037908332
 23
135.5113252291895
 33
0.0
  0
MTEXT
  5
77D0
330
7651
100
AcDbEntity
  8
标注
100
AcDbMText
 10
1103.21903790837
 20
135.5113252291895
 30
0.0
 40
0.65
 41
0.0
 71
     5
 72
     1
  1
\A1;18"
 73
     1
 44
1.0
  0
POINT
  5
77D1
330
7651
100
AcDbEntity
  8
DEFPOINTS
 62
     0
100
AcDbPoint
 10
1094.219037908409
 20
139.0429984336211
 30
0.0
  0
POINT
  5
77D2
330
7651
100
AcDbEntity
  8
DEFPOINTS
 62
     0
100
AcDbPoint
 10
1112.219037908332
 20
139.0429984336211
 30
0.0
  0
POINT
  5
77D3
330
7651
100
AcDbEntity
  8
DEFPOINTS
 62
     0
100
AcDbPoint
 10
1112.219037908332
 20
135.5113252291895
 30
0.0
  0
ENDBLK
  5
7653
330
7651
100
AcDbEntity
  8
0
100
AcDbBlockEnd
  0
BLOCK
  5
7660
330
765F
100
AcDbEntity
  8
0
100
AcDbBlockBegin
  2
*D1
 70
     1
 10
0.0
 20
0.0
 30
0.0
  3
*D1
  1

  0
LINE
  5
77D4
330
765F
100
AcDbEntity
  8
标注
370
    -2
100
AcDbLine
 10
1113.219037908341
 20
138.162998433621
 30
0.0
 11
1113.219037908341
 21
135.1913252291895
 31
0.0
  0
LINE
  5
77D5
330
765F
100
AcDbEntity
  8
标注
370
    -2
100
AcDbLine
 10
1124.219037908293
 20
138.162998433621
 30
0.0
 11
1124.219037908293
 21
135.1913252291895
 31
0.0
  0
LINE
  5
77D6
330
765F
100
AcDbEntity
  8
标注
370
    -2
100
AcDbLine
 10
1113.869037908341
 20
135.5113252291895
 30
0.0
 11
1117.823574061114
 21
135.5113252291895
 31
0.0
  0
LINE
  5
77D7
330
765F
100
AcDbEntity
  8
标注
370
    -2
100
AcDbLine
 10
1123.569037908293
 20
135.5113252291895
 30
0.0
 11
1119.61450175552
 21
135.5113252291895
 31
0.0
  0
SOLID
  5
77D8
330
765F
100
AcDbEntity
  8
标注
100
AcDbTrace
 10
1113.869037908341
 20
135.6196585625228
 30
0.0
 11
1113.869037908341
 21
135.4029918958562
 31
0.0
 12
1113.219037908341
 22
135.5113252291895
 32
0.0
 13
1113.219037908341
 23
135.5113252291895
 33
0.0
  0
SOLID
  5
77D9
330
765F
100
AcDbEntity
  8
标注
100
AcDbTrace
 10
1123.569037908293
 20
135.6196585625228
 30
0.0
 11
1123.569037908293
 21
135.4029918958562
 31
0.0
 12
1124.219037908293
 22
135.5113252291895
 32
0.0
 13
1124.219037908293
 23
135.5113252291895
 33
0.0
  0
MTEXT
  5
77DA
330
765F
100
AcDbEntity
  8
标注
100
AcDbMText
 10
1118.719037908317
 20
135.5113252291895
 30
0.0
 40
0.65
 41
0.0
 71
     5
 72
     1
  1
\A1;11"
 73
     1
 44
1.0
  0
POINT
  5
77DB
330
765F
100
AcDbEntity
  8
DEFPOINTS
 62
     0
100
AcDbPoint
 10
1113.219037908341
 20
139.0429984336211
 30
0.0
  0
POINT
  5
77DC
330
765F
100
AcDbEntity
  8
DEFPOINTS
 62
     0
100
AcDbPoint
 10
1124.219037908293
 20
139.0429984336211
 30
0.0
  0
POINT
  5
77DD
330
765F
100
AcDbEntity
  8
DEFPOINTS
 62
     0
100
AcDbPoint
 10
1124.219037908293
 20
135.5113252291895
 30
0.0
  0
ENDBLK
  5
7661
330
765F
100
AcDbEntity
  8
0
100
AcDbBlockEnd
  0
BLOCK
  5
766E
330
766D
100
AcDbEntity
  8
0
100
AcDbBlockBegin
  2
*D2
 70
     1
 10
0.0
 20
0.0
 30
0.0
  3
*D2
  1

  0
LINE
  5
77DE
330
766D
100
AcDbEntity
  8
标注
370
    -2
100
AcDbLine
 10
1093.732738695828
 20
138.6492976462309
 30
0.0
 11
1090.728333272927
 21
138.6492976462309
 31
0.0
  0
LINE
  5
77DF
330
766D
100
AcDbEntity
  8
标注
370
    -2
100
AcDbLine
 10
1093.732738695828
 20
156.6492976461727
 30
0.0
 11
1090.728333272927
 21
156.6492976461727
 31
0.0
  0
LINE
  5
77E0
330
766D
100
AcDbEntity
  8
标注
370
    -2
100
AcDbLine
 10
1091.048333272927
 20
139.2992976462309
 30
0.0
 11
1091.048333272927
 21
146.7538337989986
 31
0.0
  0
LINE
  5
77E1
330
766D
100
AcDbEntity
  8
标注
370
    -2
100
AcDbLine
 10
1091.048333272927
 20
155.9992976461727
 30
0.0
 11
1091.048333272927
 21
148.5447614934051
 31
0.0
  0
SOLID
  5
77E2
330
766D
100
AcDbEntity
  8
标注
100
AcDbTrace
 10
1090.939999939593
 20
139.2992976462309
 30
0.0
 11
1091.15666660626
 21
139.2992976462309
 31
0.0
 12
1091.048333272927
 22
138.6492976462309
 32
0.0
 13
1091.048333272927
 23
138.6492976462309
 33
0.0
  0
SOLID
  5
77E3
330
766D
100
AcDbEntity
  8
标注
100
AcDbTrace
 10
1090.939999939593
 20
155.9992976461727
 30
0.0
 11
1091.15666660626
 21
155.9992976461727
 31
0.0
 12
1091.048333272927
 22
156.6492976461727
 32
0.0
 13
1091.048333272927
 23
156.6492976461727
 33
0.0
  0
MTEXT
  5
77E4
330
766D
100
AcDbEntity
  8
标注
100
AcDbMText
 10
1091.048333272927
 20
147.649297646202
 30
0.0
 40
0.65
 41
0.0
 71
     5
 72
     1
  1
\A1;18"
 11
0.0000000000000001
 21
1.0
 31
0.0
 73
     1
 44
1.0
  0
POINT
  5
77E5
330
766D
100
AcDbEntity
  8
DEFPOINTS
 62
     0
100
AcDbPoint
 10
1094.612738695828
 20
138.6492976462309
 30
0.0
  0
POINT
  5
77E6
330
766D
100
AcDbEntity
  8
DEFPOINTS
 62
     0
100
AcDbPoint
 10
1094.612738695828
 20
156.6492976461727
 30
0.0
  0
POINT
  5
77E7
330
766D
100
AcDbEntity
  8
DEFPOINTS
 62
     0
100
AcDbPoint
 10
1091.048333272927
 20
156.6492976461727
 30
0.0
  0
ENDBLK
  5
766F
330
766D
100
AcDbEntity
  8
0
100
AcDbBlockEnd
  0
BLOCK
  5
767C
330
767B
100
AcDbEntity
  8
0
100
AcDbBlockBegin
  2
*D3
 70
     1
 10
0.0
 20
0.0
 30
0.0
  3
*D3
  1

  0
LINE
  5
77E8
330
767B
100
AcDbEntity
  8
标注
370
    -2
100
AcDbLine
 10
1093.339037908409
 20
137.6492976462309
 30
0.0
 11
1088.629100061997
 21
137.6492976462309
 31
0.0
  0
LINE
  5
77E9
330
767B
100
AcDbEntity
  8
标注
370
    -2
100
AcDbLine
 10
1093.339037908296
 20
157.6492976461445
 30
0.0
 11
1088.629100061997
 21
157.6492976461445
 31
0.0
  0
LINE
  5
77EA
330
767B
100
AcDbEntity
  8
标注
370
    -2
100
AcDbLine
 10
1088.949100061997
 20
138.2992976462309
 30
0.0
 11
1088.949100061997
 21
146.7176980554645
 31
0.0
  0
LINE
  5
77EB
330
767B
100
AcDbEntity
  8
标注
370
    -2
100
AcDbLine
 10
1088.949100061997
 20
156.9992976461445
 30
0.0
 11
1088.949100061997
 21
148.5808972369108
 31
0.0
  0
SOLID
  5
77EC
330
767B
100
AcDbEntity
  8
标注
100
AcDbTrace
 10
1088.840766728663
 20
138.2992976462309
 30
0.0
 11
1089.05743339533
 21
138.2992976462309
 31
0.0
 12
1088.949100061997
 22
137.6492976462309
 32
0.0
 13
1088.949100061997
 23
137.6492976462309
 33
0.0
  0
SOLID
  5
77ED
330
767B
100
AcDbEntity
  8
标注
100
AcDbTrace
 10
1088.840766728663
 20
156.9992976461445
 30
0.0
 11
1089.05743339533
 21
156.9992976461445
 31
0.0
 12
1088.949100061997
 22
157.6492976461445
 32
0.0
 13
1088.949100061997
 23
157.6492976461445
 33
0.0
  0
MTEXT
  5
77EE
330
767B
100
AcDbEntity
  8
标注
100
AcDbMText
 10
1088.949100061997
 20
147.6492976461879
 30
0.0
 40
0.65
 41
0.0
 71
     5
 72
     1
  1
\A1;20"
 11
0.0000000000000001
 21
1.0
 31
0.0
 73
     1
 44
1.0
  0
POINT
  5
77EF
330
767B
100
AcDbEntity
  8
DEFPOINTS
 62
     0
100
AcDbPoint
 10
1094.219037908409
 20
137.6492976462309
 30
0.0
  0
POINT
  5
77F0
330
767B
100
AcDbEntity
  8
DEFPOINTS
 62
     0
100
AcDbPoint
 10
1094.219037908296
 20
157.6492976461445
 30
0.0
  0
POINT
  5
77F1
330
767B
100
AcDbEntity
  8
DEFPOINTS
 62
     0
100
AcDbPoint
 10
1088.949100061997
 20
157.6492976461445
 30
0.0
  0
ENDBLK
  5
767D
330
767B
100
AcDbEntity
  8
0
100
AcDbBlockEnd
  0
BLOCK
  5
768A
330
7689
100
AcDbEntity
  8
0
100
AcDbBlockBegin
  2
*D4
 70
     1
 10
0.0
 20
0.0
 30
0.0
  3
*D4
  1

  0
LINE
  5
77F2
330
7689
100
AcDbEntity
  8
标注
370
    -2
100
AcDbLine
 10
1124.705337120903
 20
138.6492976462309
 30
0.0
 11
1127.230265449214
 21
138.6492976462309
 31
0.0
  0
LINE
  5
77F3
330
7689
100
AcDbEntity
  8
标注
370
    -2
100
AcDbLine
 10
1124.705337120903
 20
153.6492976461727
 30
0.0
 11
1127.230265449214
 21
153.6492976461727
 31
0.0
  0
LINE
  5
77F4
330
7689
100
AcDbEntity
  8
标注
370
    -2
100
AcDbLine
 10
1126.910265449214
 20
139.2992976462309
 30
0.0
 11
1126.910265449214
 21
145.2538337989986
 31
0.0
  0
LINE
  5
77F5
330
7689
100
AcDbEntity
  8
标注
370
    -2
100
AcDbLine
 10
1126.910265449214
 20
152.9992976461727
 30
0.0
 11
1126.910265449214
 21
147.0447614934051
 31
0.0
  0
SOLID
  5
77F6
330
7689
100
AcDbEntity
  8
标注
100
AcDbTrace
 10
1126.801932115881
 20
139.2992976462309
 30
0.0
 11
1127.018598782548
 21
139.2992976462309
 31
0.0
 12
1126.910265449214
 22
138.6492976462309
 32
0.0
 13
1126.910265449214
 23
138.6492976462309
 33
0.0
  0
SOLID
  5
77F7
330
7689
100
AcDbEntity
  8
标注
100
AcDbTrace
 10
1126.801932115881
 20
152.9992976461727
 30
0.0
 11
1127.018598782548
 21
152.9992976461727
 31
0.0
 12
1126.910265449214
 22
153.6492976461727
 32
0.0
 13
1126.910265449214
 23
153.6492976461727
 33
0.0
  0
MTEXT
  5
77F8
330
7689
100
AcDbEntity
  8
标注
100
AcDbMText
 10
1126.910265449214
 20
146.149297646202
 30
0.0
 40
0.65
 41
0.0
 71
     5
 72
     1
  1
\A1;15"
 11
0.0000000000000001
 21
1.0
 31
0.0
 73
     1
 44
1.0
  0
POINT
  5
77F9
330
7689
100
AcDbEntity
  8
DEFPOINTS
 62
     0
100
AcDbPoint
 10
1123.825337120903
 20
138.6492976462309
 30
0.0
  0
POINT
  5
77FA
330
7689
100
AcDbEntity
  8
DEFPOINTS
 62
     0
100
AcDbPoint
 10
1123.825337120903
 20
153.6492976461727
 30
0.0
  0
POINT
  5
77FB
330
7689
100
AcDbEntity
  8
DEFPOINTS
 62
     0
100
AcDbPoint
 10
1126.910265449214
 20
153.6492976461727
 30
0.0
  0
ENDBLK
  5
768B
330
7689
100
AcDbEntity
  8
0
100
AcDbBlockEnd
  0
BLOCK
  5
7698
330
7697
100
AcDbEntity
  8
0
100
AcDbBlockBegin
  2
*D5
 70
     1
 10
0.0
 20
0.0
 30
0.0
  3
*D5
  1

  0
LINE
  5
77FC
330
7697
100
AcDbEntity
  8
标注
370
    -2
100
AcDbLine
 10
1125.099037908293
 20
137.6492976462309
 30
0.0
 11
1128.947244791557
 21
137.6492976462309
 31
0.0
  0
LINE
  5
77FD
330
7697
100
AcDbEntity
  8
标注
370
    -2
100
AcDbLine
 10
1125.099037908293
 20
154.6492976461727
 30
0.0
 11
1128.947244791557
 21
154.6492976461727
 31
0.0
  0
LINE
  5
77FE
330
7697
100
AcDbEntity
  8
标注
370
    -2
100
AcDbLine
 10
1128.627244791557
 20
138.2992976462309
 30
0.0
 11
1128.627244791557
 21
145.2538337989986
 31
0.0
  0
LINE
  5
77FF
330
7697
100
AcDbEntity
  8
标注
370
    -2
100
AcDbLine
 10
1128.627244791557
 20
153.9992976461727
 30
0.0
 11
1128.627244791557
 21
147.0447614934051
 31
0.0
  0
SOLID
  5
7800
330
7697
100
AcDbEntity
  8
标注
100
AcDbTrace
 10
1128.518911458224
 20
138.2992976462309
 30
0.0
 11
1128.735578124891
 21
138.2992976462309
 31
0.0
 12
1128.627244791557
 22
137.6492976462309
 32
0.0
 13
1128.627244791557
 23
137.6492976462309
 33
0.0
  0
SOLID
  5
7801
330
7697
100
AcDbEntity
  8
标注
100
AcDbTrace
 10
1128.518911458224
 20
153.9992976461727
 30
0.0
 11
1128.735578124891
 21
153.9992976461727
 31
0.0
 12
1128.627244791557
 22
154.6492976461727
 32
0.0
 13
1128.627244791557
 23
154.6492976461727
 33
0.0
  0
MTEXT
  5
7802
330
7697
100
AcDbEntity
  8
标注
100
AcDbMText
 10
1128.627244791557
 20
146.149297646202
 30
0.0
 40
0.65
 41
0.0
 71
     5
 72
     1
  1
\A1;17"
 11
0.0000000000000001
 21
1.0
 31
0.0
 73
     1
 44
1.0
  0
POINT
  5
7803
330
7697
100
AcDbEntity
  8
DEFPOINTS
 62
     0
100
AcDbPoint
 10
1124.219037908293
 20
137.6492976462309
 30
0.0
  0
POINT
  5
7804
330
7697
100
AcDbEntity
  8
DEFPOINTS
 62
     0
100
AcDbPoint
 10
1124.219037908293
 20
154.6492976461727
 30
0.0
  0
POINT
  5
7805
330
7697
100
AcDbEntity
  8
DEFPOINTS
 62
     0
100
AcDbPoint
 10
1128.627244791557
 20
154.6492976461727
 30
0.0
  0
ENDBLK
  5
7699
330
7697
100
AcDbEntity
  8
0
100
AcDbBlockEnd
  0
BLOCK
  5
76A6
330
76A5
100
AcDbEntity
  8
0
100
AcDbBlockBegin
  2
*D6
 70
     1
 10
0.0
 20
0.0
 30
0.0
  3
*D6
  1

  0
LINE
  5
7806
330
76A5
100
AcDbEntity
  8
标注
370
    -2
100
AcDbLine
 10
1093.219037908409
 20
137.7692976462309
 30
0.0
 11
1093.219037908409
 21
133.3930756036228
 31
0.0
  0
LINE
  5
7807
330
76A5
100
AcDbEntity
  8
标注
370
    -2
100
AcDbLine
 10
1125.219037908293
 20
137.7692976462309
 30
0.0
 11
1125.219037908293
 21
133.3930756036228
 31
0.0
  0
LINE
  5
7808
330
76A5
100
AcDbEntity
  8
标注
370
    -2
100
AcDbLine
 10
1093.869037908409
 20
133.7130756036228
 30
0.0
 11
1108.293202301257
 21
133.7130756036228
 31
0.0
  0
LINE
  5
7809
330
76A5
100
AcDbEntity
  8
标注
370
    -2
100
AcDbLine
 10
1124.569037908293
 20
133.7130756036228
 30
0.0
 11
1110.144873515445
 21
133.7130756036228
 31
0.0
  0
SOLID
  5
780A
330
76A5
100
AcDbEntity
  8
标注
100
AcDbTrace
 10
1093.869037908409
 20
133.8214089369561
 30
0.0
 11
1093.869037908409
 21
133.6047422702895
 31
0.0
 12
1093.219037908409
 22
133.7130756036228
 32
0.0
 13
1093.219037908409
 23
133.7130756036228
 33
0.0
  0
SOLID
  5
780B
330
76A5
100
AcDbEntity
  8
标注
100
AcDbTrace
 10
1124.569037908293
 20
133.8214089369561
 30
0.0
 11
1124.569037908293
 21
133.6047422702895
 31
0.0
 12
1125.219037908293
 22
133.7130756036228
 32
0.0
 13
1125.219037908293
 23
133.7130756036228
 33
0.0
  0
MTEXT
  5
780C
330
76A5
100
AcDbEntity
  8
标注
100
AcDbMText
 10
1109.219037908351
 20
133.7130756036228
 30
0.0
 40
0.65
 41
0.0
 71
     5
 72
     1
  1
\A1;32"
 73
     1
 44
1.0
  0
POINT
  5
780D
330
76A5
100
AcDbEntity
  8
DEFPOINTS
 62
     0
100
AcDbPoint
 10
1093.219037908409
 20
138.6492976462309
 30
0.0
  0
POINT
  5
780E
330
76A5
100
AcDbEntity
  8
DEFPOINTS
 62
     0
100
AcDbPoint
 10
1125.219037908293
 20
138.6492976462309
 30
0.0
  0
POINT
  5
780F
330
76A5
100
AcDbEntity
  8
DEFPOINTS
 62
     0
100
AcDbPoint
 10
1125.219037908293
 20
133.7130756036228
 30
0.0
  0
ENDBLK
  5
76A7
330
76A5
100
AcDbEntity
  8
0
100
AcDbBlockEnd
  0
BLOCK
  5
76B4
330
76B3
100
AcDbEntity
  8
0
100
AcDbBlockBegin
  2
*D7
 70
     1
 10
0.0
 20
0.0
 30
0.0
  3
*D7
  1

  0
LINE
  5
7810
330
76B3
100
AcDbEntity
  8
标注
370
    -2
100
AcDbLine
 10
1093.87626493558
 20
156.9951357246206
 30
0.0
 11
1093.417600967974
 21
157.4557085905384
 31
0.0
  0
MTEXT
  5
7811
330
76B3
100
AcDbEntity
  8
标注
100
AcDbMText
 10
1093.600253988969
 20
158.3447249952715
 30
0.0
 40
0.65
 41
0.0
 71
     5
 72
     1
  1
\A1;5-R3/8"
 11
0.7056368732401872
 21
-0.7085736398736634
 31
0.0
 73
     1
 44
1.0
  0
LINE
  5
7812
330
76B3
100
AcDbEntity
  8
标注
370
    -2
100
AcDbLine
 10
1094.6127386958
 20
156.2555968587534
 30
0.0
 11
1094.334928903186
 21
156.5345628587027
 31
0.0
  0
SOLID
  5
7813
330
76B3
100
AcDbEntity
  8
标注
100
AcDbTrace
 10
1093.9530270799
 20
157.0715797192216
 30
0.0
 11
1093.79950279126
 21
156.9186917300195
 31
0.0
 12
1094.334928903186
 22
156.5345628587027
 32
0.0
 13
1094.334928903186
 23
156.5345628587027
 33
0.0
  0
POINT
  5
7814
330
76B3
100
AcDbEntity
  8
DEFPOINTS
 62
     0
100
AcDbPoint
 10
1094.334928903186
 20
156.5345628587027
 30
0.0
  0
POINT
  5
7815
330
76B3
100
AcDbEntity
  8
DEFPOINTS
 62
     0
100
AcDbPoint
 10
1094.6127386958
 20
156.2555968587534
 30
0.0
  0
ENDBLK
  5
76B5
330
76B3
100
AcDbEntity
  8
0
100
AcDbBlockEnd
  0
BLOCK
  5
76BE
330
76BD
100
AcDbEntity
  8
0
100
AcDbBlockBegin
  2
*D8
 70
     1
 10
0.0
 20
0.0
 30
0.0
  3
*D8
  1

  0
LINE
  5
7816
330
76BD
100
AcDbEntity
  8
标注
370
    -2
100
AcDbLine
 10
1124.291583090298
 20
154.1893666535615
 30
0.0
 11
1124.581953552567
 21
154.7709034061764
 31
0.0
  0
MTEXT
  5
7817
330
76BD
100
AcDbEntity
  8
标注
100
AcDbMText
 10
1124.530643726963
 20
155.8799004967975
 30
0.0
 40
0.65
 41
0.0
 71
     5
 72
     1
  1
\A1;4-R3/8"
 11
0.4467237881053878
 21
0.8946719270999691
 31
0.0
 73
     1
 44
1.0
  0
LINE
  5
7818
330
76BD
100
AcDbEntity
  8
标注
370
    -2
100
AcDbLine
 10
1123.825337120903
 20
153.2555968587827
 30
0.0
 11
1124.00121262803
 21
153.6078299009465
 31
0.0
  0
SOLID
  5
7819
330
76BD
100
AcDbEntity
  8
标注
100
AcDbTrace
 10
1124.194660298196
 20
154.2377617306062
 30
0.0
 11
1124.388505882401
 21
154.1409715765166
 31
0.0
 12
1124.00121262803
 22
153.6078299009465
 32
0.0
 13
1124.00121262803
 23
153.6078299009465
 33
0.0
  0
POINT
  5
781A
330
76BD
100
AcDbEntity
  8
DEFPOINTS
 62
     0
100
AcDbPoint
 10
1124.00121262803
 20
153.6078299009465
 30
0.0
  0
POINT
  5
781B
330
76BD
100
AcDbEntity
  8
DEFPOINTS
 62
     0
100
AcDbPoint
 10
1123.825337120903
 20
153.2555968587827
 30
0.0
  0
ENDBLK
  5
76BF
330
76BD
100
AcDbEntity
  8
0
100
AcDbBlockEnd
  0
BLOCK
  5
76EC
330
76EB
100
AcDbEntity
  8
0
100
AcDbBlockBegin
  2
*D9
 70
     1
 10
0.0
 20
0.0
 30
0.0
  3
*D9
  1

  0
LINE
  5
781C
330
76EB
100
AcDbEntity
  8
标注
370
    -2
100
AcDbLine
 10
1126.099037908293
 20
180.2520553898191
 30
0.0
 11
1126.704445311587
 21
180.2520553898191
 31
0.0
  0
LINE
  5
781D
330
76EB
100
AcDbEntity
  8
标注
370
    -2
100
AcDbLine
 10
1125.2099719636
 20
172.3114609016493
 30
0.0
 11
1126.704445311587
 21
172.3114609016493
 31
0.0
  0
LINE
  5
781E
330
76EB
100
AcDbEntity
  8
标注
370
    -2
100
AcDbLine
 10
1126.384445311588
 20
179.6020553898191
 30
0.0
 11
1126.384445311588
 21
176.95575200658
 31
0.0
  0
LINE
  5
781F
330
76EB
100
AcDbEntity
  8
标注
370
    -2
100
AcDbLine
 10
1126.384445311588
 20
172.9614609016491
 30
0.0
 11
1126.384445311588
 21
175.6077642848883
 31
0.0
  0
SOLID
  5
7820
330
76EB
100
AcDbEntity
  8
标注
100
AcDbTrace
 10
1126.276111978254
 20
179.6020553898191
 30
0.0
 11
1126.492778644921
 21
179.6020553898191
 31
0.0
 12
1126.384445311588
 22
180.2520553898191
 32
0.0
 13
1126.384445311588
 23
180.2520553898191
 33
0.0
  0
SOLID
  5
7821
330
76EB
100
AcDbEntity
  8
标注
100
AcDbTrace
 10
1126.276111978254
 20
172.9614609016491
 30
0.0
 11
1126.492778644921
 21
172.9614609016491
 31
0.0
 12
1126.384445311588
 22
172.3114609016493
 32
0.0
 13
1126.384445311588
 23
172.3114609016493
 33
0.0
  0
MTEXT
  5
7822
330
76EB
100
AcDbEntity
  8
标注
100
AcDbMText
 10
1126.384445311588
 20
176.2817581457344
 30
0.0
 40
0.65
 41
0.0
 71
     5
 72
     1
  1
\A1;8"
 11
0.0000000000000001
 21
1.0
 31
0.0
 73
     1
 44
1.0
  0
POINT
  5
7823
330
76EB
100
AcDbEntity
  8
DEFPOINTS
 62
     0
100
AcDbPoint
 10
1125.219037908293
 20
180.2520553898191
 30
0.0
  0
POINT
  5
7824
330
76EB
100
AcDbEntity
  8
DEFPOINTS
 62
     0
100
AcDbPoint
 10
1124.3299719636
 20
172.3114609016493
 30
0.0
  0
POINT
  5
7825
330
76EB
100
AcDbEntity
  8
DEFPOINTS
 62
     0
100
AcDbPoint
 10
1126.384445311588
 20
172.3114609016493
 30
0.0
  0
ENDBLK
  5
76ED
330
76EB
100
AcDbEntity
  8
0
100
AcDbBlockEnd
  0
BLOCK
  5
770E
330
770D
100
AcDbEntity
  8
0
100
AcDbBlockBegin
  2
*D10
 70
     1
 10
0.0
 20
0.0
 30
0.0
  3
*D10
  1

  0
LINE
  5
7826
330
770D
100
AcDbEntity
  8
标注
370
    -2
100
AcDbLine
 10
1092.339037908409
 20
180.2520553898191
 30
0.0
 11
1090.297624076173
 21
180.2520553898191
 31
0.0
  0
LINE
  5
7827
330
770D
100
AcDbEntity
  8
标注
370
    -2
100
AcDbLine
 10
1092.476586291607
 20
170.1897237893847
 30
0.0
 11
1090.297624076173
 21
170.1897237893847
 31
0.0
  0
LINE
  5
7828
330
770D
100
AcDbEntity
  8
标注
370
    -2
100
AcDbLine
 10
1090.617624076173
 20
179.6020553898191
 30
0.0
 11
1090.617624076173
 21
176.1163534368052
 31
0.0
  0
LINE
  5
7829
330
770D
100
AcDbEntity
  8
标注
370
    -2
100
AcDbLine
 10
1090.617624076173
 20
170.8397237893848
 30
0.0
 11
1090.617624076173
 21
174.3254257423986
 31
0.0
  0
SOLID
  5
782A
330
770D
100
AcDbEntity
  8
标注
100
AcDbTrace
 10
1090.509290742839
 20
179.6020553898191
 30
0.0
 11
1090.725957409506
 21
179.6020553898191
 31
0.0
 12
1090.617624076173
 22
180.2520553898191
 32
0.0
 13
1090.617624076173
 23
180.2520553898191
 33
0.0
  0
SOLID
  5
782B
330
770D
100
AcDbEntity
  8
标注
100
AcDbTrace
 10
1090.509290742839
 20
170.8397237893848
 30
0.0
 11
1090.725957409506
 21
170.8397237893848
 31
0.0
 12
1090.617624076173
 22
170.1897237893847
 32
0.0
 13
1090.617624076173
 23
170.1897237893847
 33
0.0
  0
MTEXT
  5
782C
330
770D
100
AcDbEntity
  8
标注
100
AcDbMText
 10
1090.617624076173
 20
175.2208895896021
 30
0.0
 40
0.65
 41
0.0
 71
     5
 72
     1
  1
\A1;10"
 11
0.0000000000000001
 21
1.0
 31
0.0
 73
     1
 44
1.0
  0
POINT
  5
782D
330
770D
100
AcDbEntity
  8
DEFPOINTS
 62
     0
100
AcDbPoint
 10
1093.219037908409
 20
180.2520553898191
 30
0.0
  0
POINT
  5
782E
330
770D
100
AcDbEntity
  8
DEFPOINTS
 62
     0
100
AcDbPoint
 10
1093.356586291608
 20
170.1897237893847
 30
0.0
  0
POINT
  5
782F
330
770D
100
AcDbEntity
  8
DEFPOINTS
 62
     0
100
AcDbPoint
 10
1090.617624076173
 20
170.1897237893847
 30
0.0
  0
ENDBLK
  5
770F
330
770D
100
AcDbEntity
  8
0
100
AcDbBlockEnd
  0
BLOCK
  5
7746
330
7745
100
AcDbEntity
  8
0
100
AcDbBlockBegin
  2
*D11
 70
     1
 10
0.0
 20
0.0
 30
0.0
  3
*D11
  1

  0
LINE
  5
7830
330
7745
100
AcDbEntity
  8
标注
370
    -2
100
AcDbLine
 10
1093.802240785223
 20
170.0507709463767
 30
0.0
 11
1093.297475771884
 21
169.6412440470058
 31
0.0
  0
MTEXT
  5
7831
330
7745
100
AcDbEntity
  8
标注
100
AcDbMText
 10
1095.198511755165
 20
171.6841163083834
 30
0.0
 40
0.65
 41
0.0
 71
     5
 72
     1
  1
\A1;R3/8"
 11
0.7765615589838496
 21
0.6300413836475928
 31
0.0
 73
     1
 44
1.0
  0
LINE
  5
7832
330
7745
100
AcDbEntity
  8
标注
370
    -2
100
AcDbLine
 10
1094.6127386958
 20
170.7083456345843
 30
0.0
 11
1094.307005798563
 21
170.4602978457476
 31
0.0
  0
SOLID
  5
7833
330
7745
100
AcDbEntity
  8
标注
100
AcDbTrace
 10
1093.733986301995
 20
170.1348984486
 30
0.0
 11
1093.870495268451
 21
169.9666434441534
 31
0.0
 12
1094.307005798563
 22
170.4602978457476
 32
0.0
 13
1094.307005798563
 23
170.4602978457476
 33
0.0
  0
POINT
  5
7834
330
7745
100
AcDbEntity
  8
DEFPOINTS
 62
     0
100
AcDbPoint
 10
1094.307005798563
 20
170.4602978457476
 30
0.0
  0
POINT
  5
7835
330
7745
100
AcDbEntity
  8
DEFPOINTS
 62
     0
100
AcDbPoint
 10
1094.6127386958
 20
170.7083456345843
 30
0.0
  0
ENDBLK
  5
7747
330
7745
100
AcDbEntity
  8
0
100
AcDbBlockEnd
  0
BLOCK
  5
7750
330
774F
100
AcDbEntity
  8
0
100
AcDbBlockBegin
  2
*D12
 70
     1
 10
0.0
 20
0.0
 30
0.0
  3
*D12
  1

  0
LINE
  5
7836
330
774F
100
AcDbEntity
  8
标注
370
    -2
100
AcDbLine
 10
1112.872264177389
 20
171.9753720636373
 30
0.0
 11
1112.411108602228
 21
171.5172939747729
 31
0.0
  0
MTEXT
  5
7837
330
774F
100
AcDbEntity
  8
标注
100
AcDbMText
 10
1114.150678800255
 20
173.7005345679518
 30
0.0
 40
0.65
 41
0.0
 71
     5
 72
     1
  1
\A1;R3/8"
 11
0.7094701156328542
 21
0.7047355213297429
 31
0.0
 73
     1
 44
1.0
  0
LINE
  5
7838
330
774F
100
AcDbEntity
  8
标注
370
    -2
100
AcDbLine
 10
1113.612738695712
 20
172.7109050821579
 30
0.0
 11
1113.333419752551
 21
172.4334501525015
 31
0.0
  0
SOLID
  5
7839
330
774F
100
AcDbEntity
  8
标注
100
AcDbTrace
 10
1112.795917829245
 20
172.0522313261641
 30
0.0
 11
1112.948610525533
 21
171.8985128011103
 31
0.0
 12
1113.333419752551
 22
172.4334501525015
 32
0.0
 13
1113.333419752551
 23
172.4334501525015
 33
0.0
  0
POINT
  5
783A
330
774F
100
AcDbEntity
  8
DEFPOINTS
 62
     0
100
AcDbPoint
 10
1113.333419752551
 20
172.4334501525015
 30
0.0
  0
POINT
  5
783B
330
774F
100
AcDbEntity
  8
DEFPOINTS
 62
     0
100
AcDbPoint
 10
1113.612738695712
 20
172.7109050821579
 30
0.0
  0
ENDBLK
  5
7751
330
774F
100
AcDbEntity
  8
0
100
AcDbBlockEnd
  0
BLOCK
  5
7766
330
7765
100
AcDbEntity
  8
0
100
AcDbBlockBegin
  2
*D13
 70
     1
 10
0.0
 20
0.0
 30
0.0
  3
*D13
  1

  0
LINE
  5
783C
330
7765
100
AcDbEntity
  8
标注
370
    -2
100
AcDbLine
 10
1094.140297750931
 20
102.9269107860633
 30
0.0
 11
1094.140297750931
 21
100.45367402825
 31
0.0
  0
LINE
  5
783D
330
7765
100
AcDbEntity
  8
标注
370
    -2
100
AcDbLine
 10
1124.297778065771
 20
102.9269107860633
 30
0.0
 11
1124.297778065771
 21
100.45367402825
 31
0.0
  0
LINE
  5
783E
330
7765
100
AcDbEntity
  8
标注
370
    -2
100
AcDbLine
 10
1094.790297750931
 20
100.77367402825
 30
0.0
 11
1107.535903529088
 21
100.77367402825
 31
0.0
  0
LINE
  5
783F
330
7765
100
AcDbEntity
  8
标注
370
    -2
100
AcDbLine
 10
1123.64777806577
 20
100.77367402825
 30
0.0
 11
1110.902172287614
 21
100.77367402825
 31
0.0
  0
SOLID
  5
7840
330
7765
100
AcDbEntity
  8
标注
100
AcDbTrace
 10
1094.790297750931
 20
100.8820073615833
 30
0.0
 11
1094.790297750931
 21
100.6653406949167
 31
0.0
 12
1094.140297750931
 22
100.77367402825
 32
0.0
 13
1094.140297750931
 23
100.77367402825
 33
0.0
  0
SOLID
  5
7841
330
7765
100
AcDbEntity
  8
标注
100
AcDbTrace
 10
1123.64777806577
 20
100.8820073615833
 30
0.0
 11
1123.64777806577
 21
100.6653406949167
 31
0.0
 12
1124.297778065771
 22
100.77367402825
 32
0.0
 13
1124.297778065771
 23
100.77367402825
 33
0.0
  0
MTEXT
  5
7842
330
7765
100
AcDbEntity
  8
标注
100
AcDbMText
 10
1109.219037908351
 20
100.77367402825
 30
0.0
 40
0.65
 41
0.0
 71
     5
 72
     1
  1
\A1;30 1/8"
 73
     1
 44
1.0
  0
POINT
  5
7843
330
7765
100
AcDbEntity
  8
DEFPOINTS
 62
     0
100
AcDbPoint
 10
1094.140297750931
 20
103.8069107860633
 30
0.0
  0
POINT
  5
7844
330
7765
100
AcDbEntity
  8
DEFPOINTS
 62
     0
100
AcDbPoint
 10
1124.297778065771
 20
103.8069107860633
 30
0.0
  0
POINT
  5
7845
330
7765
100
AcDbEntity
  8
DEFPOINTS
 62
     0
100
AcDbPoint
 10
1124.297778065771
 20
100.77367402825
 30
0.0
  0
ENDBLK
  5
7767
330
7765
100
AcDbEntity
  8
0
100
AcDbBlockEnd
  0
BLOCK
  5
7774
330
7773
100
AcDbEntity
  8
0
100
AcDbBlockBegin
  2
*D14
 70
     1
 10
0.0
 20
0.0
 30
0.0
  3
*D14
  1

  0
LINE
  5
7846
330
7773
100
AcDbEntity
  8
标注
370
    -2
100
AcDbLine
 10
1124.705337120903
 20
103.3344698411661
 30
0.0
 11
1126.861296074281
 21
103.3344698411661
 31
0.0
  0
LINE
  5
7847
330
7773
100
AcDbEntity
  8
标注
370
    -2
100
AcDbLine
 10
1124.705337120903
 20
118.4919501560758
 30
0.0
 11
1126.861296074281
 21
118.4919501560758
 31
0.0
  0
LINE
  5
7848
330
7773
100
AcDbEntity
  8
标注
370
    -2
100
AcDbLine
 10
1126.541296074281
 20
103.9844698411661
 30
0.0
 11
1126.541296074281
 21
109.2604473792485
 31
0.0
  0
LINE
  5
7849
330
7773
100
AcDbEntity
  8
标注
370
    -2
100
AcDbLine
 10
1126.541296074281
 20
117.8419501560758
 30
0.0
 11
1126.541296074281
 21
112.5659726179934
 31
0.0
  0
SOLID
  5
784A
330
7773
100
AcDbEntity
  8
标注
100
AcDbTrace
 10
1126.432962740947
 20
103.9844698411661
 30
0.0
 11
1126.649629407614
 21
103.9844698411661
 31
0.0
 12
1126.541296074281
 22
103.3344698411661
 32
0.0
 13
1126.541296074281
 23
103.3344698411661
 33
0.0
  0
SOLID
  5
784B
330
7773
100
AcDbEntity
  8
标注
100
AcDbTrace
 10
1126.432962740947
 20
117.8419501560758
 30
0.0
 11
1126.649629407614
 21
117.8419501560758
 31
0.0
 12
1126.541296074281
 22
118.4919501560758
 32
0.0
 13
1126.541296074281
 23
118.4919501560758
 33
0.0
  0
MTEXT
  5
784C
330
7773
100
AcDbEntity
  8
标注
100
AcDbMText
 10
1126.541296074281
 20
110.9132099986211
 30
0.0
 40
0.65
 41
0.0
 71
     5
 72
     1
  1
\A1;15 1/8"
 11
0.0000000000000001
 21
1.0
 31
0.0
 73
     1
 44
1.0
  0
POINT
  5
784D
330
7773
100
AcDbEntity
  8
DEFPOINTS
 62
     0
100
AcDbPoint
 10
1123.825337120903
 20
103.3344698411661
 30
0.0
  0
POINT
  5
784E
330
7773
100
AcDbEntity
  8
DEFPOINTS
 62
     0
100
AcDbPoint
 10
1123.825337120903
 20
118.4919501560758
 30
0.0
  0
POINT
  5
784F
330
7773
100
AcDbEntity
  8
DEFPOINTS
 62
     0
100
AcDbPoint
 10
1126.541296074281
 20
118.4919501560758
 30
0.0
  0
ENDBLK
  5
7775
330
7773
100
AcDbEntity
  8
0
100
AcDbBlockEnd
  0
BLOCK
  5
7782
330
7781
100
AcDbEntity
  8
0
100
AcDbBlockBegin
  2
*D15
 70
     1
 10
0.0
 20
0.0
 30
0.0
  3
*D15
  1

  0
LINE
  5
7850
330
7781
100
AcDbEntity
  8
标注
370
    -2
100
AcDbLine
 10
1093.732738695799
 20
121.4919501560639
 30
0.0
 11
1091.348689843156
 21
121.4919501560639
 31
0.0
  0
LINE
  5
7851
330
7781
100
AcDbEntity
  8
标注
370
    -2
100
AcDbLine
 10
1093.732738695799
 20
103.3344698411661
 30
0.0
 11
1091.348689843156
 21
103.3344698411661
 31
0.0
  0
LINE
  5
7852
330
7781
100
AcDbEntity
  8
标注
370
    -2
100
AcDbLine
 10
1091.668689843156
 20
120.8419501560639
 30
0.0
 11
1091.668689843156
 21
114.0659726179874
 31
0.0
  0
LINE
  5
7853
330
7781
100
AcDbEntity
  8
标注
370
    -2
100
AcDbLine
 10
1091.668689843156
 20
103.9844698411661
 30
0.0
 11
1091.668689843156
 21
110.7604473792426
 31
0.0
  0
SOLID
  5
7854
330
7781
100
AcDbEntity
  8
标注
100
AcDbTrace
 10
1091.560356509823
 20
120.8419501560639
 30
0.0
 11
1091.77702317649
 21
120.8419501560639
 31
0.0
 12
1091.668689843156
 22
121.4919501560639
 32
0.0
 13
1091.668689843156
 23
121.4919501560639
 33
0.0
  0
SOLID
  5
7855
330
7781
100
AcDbEntity
  8
标注
100
AcDbTrace
 10
1091.560356509823
 20
103.9844698411661
 30
0.0
 11
1091.77702317649
 21
103.9844698411661
 31
0.0
 12
1091.668689843156
 22
103.3344698411661
 32
0.0
 13
1091.668689843156
 23
103.3344698411661
 33
0.0
  0
MTEXT
  5
7856
330
7781
100
AcDbEntity
  8
标注
100
AcDbMText
 10
1091.668689843156
 20
112.4132099986152
 30
0.0
 40
0.65
 41
0.0
 71
     5
 72
     1
  1
\A1;18 1/8"
 11
0.0000000000000001
 21
1.0
 31
0.0
 73
     1
 44
1.0
  0
POINT
  5
7857
330
7781
100
AcDbEntity
  8
DEFPOINTS
 62
     0
100
AcDbPoint
 10
1094.612738695799
 20
121.4919501560639
 30
0.0
  0
POINT
  5
7858
330
7781
100
AcDbEntity
  8
DEFPOINTS
 62
     0
100
AcDbPoint
 10
1094.612738695799
 20
103.3344698411661
 30
0.0
  0
POINT
  5
7859
330
7781
100
AcDbEntity
  8
DEFPOINTS
 62
     0
100
AcDbPoint
 10
1091.668689843156
 20
103.3344698411661
 30
0.0
  0
ENDBLK
  5
7783
330
7781
100
AcDbEntity
  8
0
100
AcDbBlockEnd
  0
BLOCK
  5
779C
330
779B
100
AcDbEntity
  8
0
100
AcDbBlockBegin
  2
*D16
 70
     1
 10
0.0
 20
0.0
 30
0.0
  3
*D16
  1

  0
LINE
  5
785A
330
779B
100
AcDbEntity
  8
标注
370
    -2
100
AcDbLine
 10
1094.000393770082
 20
102.8662156352885
 30
0.0
 11
1093.645787852032
 21
102.3214637258071
 31
0.0
  0
MTEXT
  5
785B
330
779B
100
AcDbEntity
  8
标注
100
AcDbMText
 10
1095.007723061172
 20
104.9823665217169
 30
0.0
 40
0.65
 41
0.0
 71
     5
 72
     1
  1
\A1;4-R1/2"
 11
0.5455475662312495
 21
0.8380798607407056
 31
0.0
 73
     1
 44
1.0
  0
LINE
  5
785C
330
779B
100
AcDbEntity
  8
标注
370
    -2
100
AcDbLine
 10
1094.6127386958
 20
103.8069107860634
 30
0.0
 11
1094.354999688132
 21
103.4109675447701
 31
0.0
  0
SOLID
  5
785D
330
779B
100
AcDbEntity
  8
标注
100
AcDbTrace
 10
1093.909601785168
 20
102.9253166216303
 30
0.0
 11
1094.091185754995
 21
102.8071146489468
 31
0.0
 12
1094.354999688132
 22
103.4109675447701
 32
0.0
 13
1094.354999688132
 23
103.4109675447701
 33
0.0
  0
POINT
  5
785E
330
779B
100
AcDbEntity
  8
DEFPOINTS
 62
     0
100
AcDbPoint
 10
1094.354999688132
 20
103.4109675447701
 30
0.0
  0
POINT
  5
785F
330
779B
100
AcDbEntity
  8
DEFPOINTS
 62
     0
100
AcDbPoint
 10
1094.6127386958
 20
103.8069107860634
 30
0.0
  0
ENDBLK
  5
779D
330
779B
100
AcDbEntity
  8
0
100
AcDbBlockEnd
  0
BLOCK
  5
77A6
330
77A5
100
AcDbEntity
  8
0
100
AcDbBlockBegin
  2
*D17
 70
     1
 10
0.0
 20
0.0
 30
0.0
  3
*D17
  1

  0
LINE
  5
7860
330
77A5
100
AcDbEntity
  8
标注
370
    -2
100
AcDbLine
 10
1111.886533972846
 20
117.992092217273
 30
0.0
 11
1111.561771314293
 21
117.429038742362
 31
0.0
  0
MTEXT
  5
7861
330
77A5
100
AcDbEntity
  8
标注
100
AcDbMText
 10
1112.539704507055
 20
120.0034754309798
 30
0.0
 40
0.65
 41
0.0
 71
     5
 72
     1
  1
\A1;R1/2"
 11
0.499634859312562
 21
0.8662361152478673
 31
0.0
 73
     1
 44
1.0
  0
LINE
  5
7862
330
77A5
100
AcDbEntity
  8
标注
370
    -2
100
AcDbLine
 10
1112.447344596428
 20
118.9643911009611
 30
0.0
 11
1112.2112966314
 21
118.5551456921842
 31
0.0
  0
SOLID
  5
7863
330
77A5
100
AcDbEntity
  8
标注
100
AcDbTrace
 10
1111.792691727028
 20
118.0462193270319
 30
0.0
 11
1111.980376218665
 21
117.9379651075142
 31
0.0
 12
1112.2112966314
 22
118.5551456921842
 32
0.0
 13
1112.2112966314
 23
118.5551456921842
 33
0.0
  0
POINT
  5
7864
330
77A5
100
AcDbEntity
  8
DEFPOINTS
 62
     0
100
AcDbPoint
 10
1112.2112966314
 20
118.5551456921842
 30
0.0
  0
POINT
  5
7865
330
77A5
100
AcDbEntity
  8
DEFPOINTS
 62
     0
100
AcDbPoint
 10
1112.447344596428
 20
118.9643911009611
 30
0.0
  0
ENDBLK
  5
77A7
330
77A5
100
AcDbEntity
  8
0
100
AcDbBlockEnd
  0
BLOCK
  5
77B0
330
77AF
100
AcDbEntity
  8
0
100
AcDbBlockBegin
  2
*D18
 70
     1
 10
0.0
 20
0.0
 30
0.0
  3
*D18
  1

  0
LINE
  5
7866
330
77AF
100
AcDbEntity
  8
标注
370
    -2
100
AcDbLine
 10
1109.435205492657
 20
122.075940857151
 30
0.0
 11
1109.654823695732
 21
122.6877151986184
 31
0.0
  0
MTEXT
  5
7867
330
77AF
100
AcDbEntity
  8
标注
100
AcDbMText
 10
1109.07288571938
 20
122.8917439178633
 30
0.0
 40
0.65
 41
0.0
 71
     5
 72
     1
  1
\A1;R1/2"
 11
0.3378741585777782
 21
0.941191294565222
 31
0.0
 73
     1
 44
1.0
  0
LINE
  5
7868
330
77AF
100
AcDbEntity
  8
标注
370
    -2
100
AcDbLine
 10
1109.055961702852
 20
121.0195092111667
 30
0.0
 11
1109.215587289581
 21
121.4641665156836
 31
0.0
  0
SOLID
  5
7869
330
77AF
100
AcDbEntity
  8
标注
100
AcDbTrace
 10
1109.333243102412
 20
122.1125438909969
 30
0.0
 11
1109.537167882901
 21
122.0393378233051
 31
0.0
 12
1109.215587289581
 22
121.4641665156836
 32
0.0
 13
1109.215587289581
 23
121.4641665156836
 33
0.0
  0
POINT
  5
786A
330
77AF
100
AcDbEntity
  8
DEFPOINTS
 62
     0
100
AcDbPoint
 10
1109.215587289581
 20
121.4641665156836
 30
0.0
  0
POINT
  5
786B
330
77AF
100
AcDbEntity
  8
DEFPOINTS
 62
     0
100
AcDbPoint
 10
1109.055961702852
 20
121.0195092111667
 30
0.0
  0
ENDBLK
  5
77B1
330
77AF
100
AcDbEntity
  8
0
100
AcDbBlockEnd
  0
BLOCK
  5
7956
330
7955
100
AcDbEntity
  8
0
100
AcDbBlockBegin
  2
*D19
 70
     1
 10
0.0
 20
0.0
 30
0.0
  3
*D19
  1

  0
LINE
  5
7AE8
330
7955
100
AcDbEntity
  8
标注
370
    -2
100
AcDbLine
 10
1135.362178664015
 20
138.162998433621
 30
0.0
 11
1135.362178664015
 21
135.1913252291895
 31
0.0
  0
LINE
  5
7AE9
330
7955
100
AcDbEntity
  8
标注
370
    -2
100
AcDbLine
 10
1117.362178664093
 20
138.162998433621
 30
0.0
 11
1117.362178664093
 21
135.1913252291895
 31
0.0
  0
LINE
  5
7AEA
330
7955
100
AcDbEntity
  8
标注
370
    -2
100
AcDbLine
 10
1134.712178664015
 20
135.5113252291895
 30
0.0
 11
1127.257642511257
 21
135.5113252291895
 31
0.0
  0
LINE
  5
7AEB
330
7955
100
AcDbEntity
  8
标注
370
    -2
100
AcDbLine
 10
1118.012178664093
 20
135.5113252291895
 30
0.0
 11
1125.46671481685
 21
135.5113252291895
 31
0.0
  0
SOLID
  5
7AEC
330
7955
100
AcDbEntity
  8
标注
100
AcDbTrace
 10
1134.712178664015
 20
135.6196585625228
 30
0.0
 11
1134.712178664015
 21
135.4029918958562
 31
0.0
 12
1135.362178664015
 22
135.5113252291895
 32
0.0
 13
1135.362178664015
 23
135.5113252291895
 33
0.0
  0
SOLID
  5
7AED
330
7955
100
AcDbEntity
  8
标注
100
AcDbTrace
 10
1118.012178664093
 20
135.6196585625228
 30
0.0
 11
1118.012178664093
 21
135.4029918958562
 31
0.0
 12
1117.362178664093
 22
135.5113252291895
 32
0.0
 13
1117.362178664093
 23
135.5113252291895
 33
0.0
  0
MTEXT
  5
7AEE
330
7955
100
AcDbEntity
  8
标注
100
AcDbMText
 10
1126.362178664054
 20
135.5113252291895
 30
0.0
 40
0.65
 41
0.0
 71
     5
 72
     1
  1
\A1;18"
 73
     1
 44
1.0
  0
POINT
  5
7AEF
330
7955
100
AcDbEntity
  8
DEFPOINTS
 62
     0
100
AcDbPoint
 10
1135.362178664015
 20
139.0429984336211
 30
0.0
  0
POINT
  5
7AF0
330
7955
100
AcDbEntity
  8
DEFPOINTS
 62
     0
100
AcDbPoint
 10
1117.362178664093
 20
139.0429984336211
 30
0.0
  0
POINT
  5
7AF1
330
7955
100
AcDbEntity
  8
DEFPOINTS
 62
     0
100
AcDbPoint
 10
1117.362178664093
 20
135.5113252291895
 30
0.0
  0
ENDBLK
  5
7957
330
7955
100
AcDbEntity
  8
0
100
AcDbBlockEnd
  0
BLOCK
  5
7963
330
7962
100
AcDbEntity
  8
0
100
AcDbBlockBegin
  2
*D20
 70
     1
 10
0.0
 20
0.0
 30
0.0
  3
*D20
  1

  0
LINE
  5
7AF2
330
7962
100
AcDbEntity
  8
标注
370
    -2
100
AcDbLine
 10
1116.362178664083
 20
138.162998433621
 30
0.0
 11
1116.362178664083
 21
135.1913252291895
 31
0.0
  0
LINE
  5
7AF3
330
7962
100
AcDbEntity
  8
标注
370
    -2
100
AcDbLine
 10
1105.362178664131
 20
138.162998433621
 30
0.0
 11
1105.362178664131
 21
135.1913252291895
 31
0.0
  0
LINE
  5
7AF4
330
7962
100
AcDbEntity
  8
标注
370
    -2
100
AcDbLine
 10
1115.712178664083
 20
135.5113252291895
 30
0.0
 11
1111.75764251131
 21
135.5113252291895
 31
0.0
  0
LINE
  5
7AF5
330
7962
100
AcDbEntity
  8
标注
370
    -2
100
AcDbLine
 10
1106.012178664131
 20
135.5113252291895
 30
0.0
 11
1109.966714816904
 21
135.5113252291895
 31
0.0
  0
SOLID
  5
7AF6
330
7962
100
AcDbEntity
  8
标注
100
AcDbTrace
 10
1115.712178664083
 20
135.6196585625228
 30
0.0
 11
1115.712178664083
 21
135.4029918958562
 31
0.0
 12
1116.362178664083
 22
135.5113252291895
 32
0.0
 13
1116.362178664083
 23
135.5113252291895
 33
0.0
  0
SOLID
  5
7AF7
330
7962
100
AcDbEntity
  8
标注
100
AcDbTrace
 10
1106.012178664131
 20
135.6196585625228
 30
0.0
 11
1106.012178664131
 21
135.4029918958562
 31
0.0
 12
1105.362178664131
 22
135.5113252291895
 32
0.0
 13
1105.362178664131
 23
135.5113252291895
 33
0.0
  0
MTEXT
  5
7AF8
330
7962
100
AcDbEntity
  8
标注
100
AcDbMText
 10
1110.862178664107
 20
135.5113252291895
 30
0.0
 40
0.65
 41
0.0
 71
     5
 72
     1
  1
\A1;11"
 73
     1
 44
1.0
  0
POINT
  5
7AF9
330
7962
100
AcDbEntity
  8
DEFPOINTS
 62
     0
100
AcDbPoint
 10
1116.362178664083
 20
139.0429984336211
 30
0.0
  0
POINT
  5
7AFA
330
7962
100
AcDbEntity
  8
DEFPOINTS
 62
     0
100
AcDbPoint
 10
1105.362178664131
 20
139.0429984336211
 30
0.0
  0
POINT
  5
7AFB
330
7962
100
AcDbEntity
  8
DEFPOINTS
 62
     0
100
AcDbPoint
 10
1105.362178664131
 20
135.5113252291895
 30
0.0
  0
ENDBLK
  5
7964
330
7962
100
AcDbEntity
  8
0
100
AcDbBlockEnd
  0
BLOCK
  5
7970
330
796F
100
AcDbEntity
  8
0
100
AcDbBlockBegin
  2
*D21
 70
     1
 10
0.0
 20
0.0
 30
0.0
  3
*D21
  1

  0
LINE
  5
7AFC
330
796F
100
AcDbEntity
  8
标注
370
    -2
100
AcDbLine
 10
1135.848477876596
 20
138.6492976462309
 30
0.0
 11
1138.852883299497
 21
138.6492976462309
 31
0.0
  0
LINE
  5
7AFD
330
796F
100
AcDbEntity
  8
标注
370
    -2
100
AcDbLine
 10
1135.848477876596
 20
156.6492976461727
 30
0.0
 11
1138.852883299497
 21
156.6492976461727
 31
0.0
  0
LINE
  5
7AFE
330
796F
100
AcDbEntity
  8
标注
370
    -2
100
AcDbLine
 10
1138.532883299497
 20
139.2992976462309
 30
0.0
 11
1138.532883299497
 21
146.7538337989986
 31
0.0
  0
LINE
  5
7AFF
330
796F
100
AcDbEntity
  8
标注
370
    -2
100
AcDbLine
 10
1138.532883299497
 20
155.9992976461727
 30
0.0
 11
1138.532883299497
 21
148.5447614934051
 31
0.0
  0
SOLID
  5
7B00
330
796F
100
AcDbEntity
  8
标注
100
AcDbTrace
 10
1138.424549966164
 20
139.2992976462309
 30
0.0
 11
1138.641216632831
 21
139.2992976462309
 31
0.0
 12
1138.532883299497
 22
138.6492976462309
 32
0.0
 13
1138.532883299497
 23
138.6492976462309
 33
0.0
  0
SOLID
  5
7B01
330
796F
100
AcDbEntity
  8
标注
100
AcDbTrace
 10
1138.424549966164
 20
155.9992976461727
 30
0.0
 11
1138.641216632831
 21
155.9992976461727
 31
0.0
 12
1138.532883299497
 22
156.6492976461727
 32
0.0
 13
1138.532883299497
 23
156.6492976461727
 33
0.0
  0
MTEXT
  5
7B02
330
796F
100
AcDbEntity
  8
标注
100
AcDbMText
 10
1138.532883299497
 20
147.649297646202
 30
0.0
 40
0.65
 41
0.0
 71
     5
 72
     1
  1
\A1;18"
 11
0.0000000000000001
 21
1.0
 31
0.0
 73
     1
 44
1.0
  0
POINT
  5
7B03
330
796F
100
AcDbEntity
  8
DEFPOINTS
 62
     0
100
AcDbPoint
 10
1134.968477876596
 20
138.6492976462309
 30
0.0
  0
POINT
  5
7B04
330
796F
100
AcDbEntity
  8
DEFPOINTS
 62
     0
100
AcDbPoint
 10
1134.968477876596
 20
156.6492976461727
 30
0.0
  0
POINT
  5
7B05
330
796F
100
AcDbEntity
  8
DEFPOINTS
 62
     0
100
AcDbPoint
 10
1138.532883299497
 20
156.6492976461727
 30
0.0
  0
ENDBLK
  5
7971
330
796F
100
AcDbEntity
  8
0
100
AcDbBlockEnd
  0
BLOCK
  5
797D
330
797C
100
AcDbEntity
  8
0
100
AcDbBlockBegin
  2
*D22
 70
     1
 10
0.0
 20
0.0
 30
0.0
  3
*D22
  1

  0
LINE
  5
7B06
330
797C
100
AcDbEntity
  8
标注
370
    -2
100
AcDbLine
 10
1136.242178664015
 20
137.6492976462309
 30
0.0
 11
1140.952116510427
 21
137.6492976462309
 31
0.0
  0
LINE
  5
7B07
330
797C
100
AcDbEntity
  8
标注
370
    -2
100
AcDbLine
 10
1136.242178664129
 20
157.6492976461445
 30
0.0
 11
1140.952116510427
 21
157.6492976461445
 31
0.0
  0
LINE
  5
7B08
330
797C
100
AcDbEntity
  8
标注
370
    -2
100
AcDbLine
 10
1140.632116510427
 20
138.2992976462309
 30
0.0
 11
1140.632116510427
 21
146.7176980554645
 31
0.0
  0
LINE
  5
7B09
330
797C
100
AcDbEntity
  8
标注
370
    -2
100
AcDbLine
 10
1140.632116510427
 20
156.9992976461445
 30
0.0
 11
1140.632116510427
 21
148.5808972369108
 31
0.0
  0
SOLID
  5
7B0A
330
797C
100
AcDbEntity
  8
标注
100
AcDbTrace
 10
1140.523783177094
 20
138.2992976462309
 30
0.0
 11
1140.740449843761
 21
138.2992976462309
 31
0.0
 12
1140.632116510427
 22
137.6492976462309
 32
0.0
 13
1140.632116510427
 23
137.6492976462309
 33
0.0
  0
SOLID
  5
7B0B
330
797C
100
AcDbEntity
  8
标注
100
AcDbTrace
 10
1140.523783177094
 20
156.9992976461445
 30
0.0
 11
1140.740449843761
 21
156.9992976461445
 31
0.0
 12
1140.632116510427
 22
157.6492976461445
 32
0.0
 13
1140.632116510427
 23
157.6492976461445
 33
0.0
  0
MTEXT
  5
7B0C
330
797C
100
AcDbEntity
  8
标注
100
AcDbMText
 10
1140.632116510427
 20
147.6492976461879
 30
0.0
 40
0.65
 41
0.0
 71
     5
 72
     1
  1
\A1;20"
 11
0.0000000000000001
 21
1.0
 31
0.0
 73
     1
 44
1.0
  0
POINT
  5
7B0D
330
797C
100
AcDbEntity
  8
DEFPOINTS
 62
     0
100
AcDbPoint
 10
1135.362178664015
 20
137.6492976462309
 30
0.0
  0
POINT
  5
7B0E
330
797C
100
AcDbEntity
  8
DEFPOINTS
 62
     0
100
AcDbPoint
 10
1135.362178664128
 20
157.6492976461445
 30
0.0
  0
POINT
  5
7B0F
330
797C
100
AcDbEntity
  8
DEFPOINTS
 62
     0
100
AcDbPoint
 10
1140.632116510427
 20
157.6492976461445
 30
0.0
  0
ENDBLK
  5
797E
330
797C
100
AcDbEntity
  8
0
100
AcDbBlockEnd
  0
BLOCK
  5
798A
330
7989
100
AcDbEntity
  8
0
100
AcDbBlockBegin
  2
*D23
 70
     1
 10
0.0
 20
0.0
 30
0.0
  3
*D23
  1

  0
LINE
  5
7B10
330
7989
100
AcDbEntity
  8
标注
370
    -2
100
AcDbLine
 10
1104.875879451521
 20
138.6492976462309
 30
0.0
 11
1102.35095112321
 21
138.6492976462309
 31
0.0
  0
LINE
  5
7B11
330
7989
100
AcDbEntity
  8
标注
370
    -2
100
AcDbLine
 10
1104.875879451521
 20
153.6492976461727
 30
0.0
 11
1102.35095112321
 21
153.6492976461727
 31
0.0
  0
LINE
  5
7B12
330
7989
100
AcDbEntity
  8
标注
370
    -2
100
AcDbLine
 10
1102.67095112321
 20
139.2992976462309
 30
0.0
 11
1102.67095112321
 21
145.2538337989986
 31
0.0
  0
LINE
  5
7B13
330
7989
100
AcDbEntity
  8
标注
370
    -2
100
AcDbLine
 10
1102.67095112321
 20
152.9992976461727
 30
0.0
 11
1102.67095112321
 21
147.0447614934051
 31
0.0
  0
SOLID
  5
7B14
330
7989
100
AcDbEntity
  8
标注
100
AcDbTrace
 10
1102.562617789876
 20
139.2992976462309
 30
0.0
 11
1102.779284456543
 21
139.2992976462309
 31
0.0
 12
1102.67095112321
 22
138.6492976462309
 32
0.0
 13
1102.67095112321
 23
138.6492976462309
 33
0.0
  0
SOLID
  5
7B15
330
7989
100
AcDbEntity
  8
标注
100
AcDbTrace
 10
1102.562617789876
 20
152.9992976461727
 30
0.0
 11
1102.779284456543
 21
152.9992976461727
 31
0.0
 12
1102.67095112321
 22
153.6492976461727
 32
0.0
 13
1102.67095112321
 23
153.6492976461727
 33
0.0
  0
MTEXT
  5
7B16
330
7989
100
AcDbEntity
  8
标注
100
AcDbMText
 10
1102.67095112321
 20
146.149297646202
 30
0.0
 40
0.65
 41
0.0
 71
     5
 72
     1
  1
\A1;15"
 11
0.0000000000000001
 21
1.0
 31
0.0
 73
     1
 44
1.0
  0
POINT
  5
7B17
330
7989
100
AcDbEntity
  8
DEFPOINTS
 62
     0
100
AcDbPoint
 10
1105.755879451521
 20
138.6492976462309
 30
0.0
  0
POINT
  5
7B18
330
7989
100
AcDbEntity
  8
DEFPOINTS
 62
     0
100
AcDbPoint
 10
1105.755879451521
 20
153.6492976461727
 30
0.0
  0
POINT
  5
7B19
330
7989
100
AcDbEntity
  8
DEFPOINTS
 62
     0
100
AcDbPoint
 10
1102.67095112321
 20
153.6492976461727
 30
0.0
  0
ENDBLK
  5
798B
330
7989
100
AcDbEntity
  8
0
100
AcDbBlockEnd
  0
BLOCK
  5
7997
330
7996
100
AcDbEntity
  8
0
100
AcDbBlockBegin
  2
*D24
 70
     1
 10
0.0
 20
0.0
 30
0.0
  3
*D24
  1

  0
LINE
  5
7B1A
330
7996
100
AcDbEntity
  8
标注
370
    -2
100
AcDbLine
 10
1104.482178664131
 20
137.6492976462309
 30
0.0
 11
1100.633971780867
 21
137.6492976462309
 31
0.0
  0
LINE
  5
7B1B
330
7996
100
AcDbEntity
  8
标注
370
    -2
100
AcDbLine
 10
1104.482178664131
 20
154.6492976461727
 30
0.0
 11
1100.633971780867
 21
154.6492976461727
 31
0.0
  0
LINE
  5
7B1C
330
7996
100
AcDbEntity
  8
标注
370
    -2
100
AcDbLine
 10
1100.953971780866
 20
138.2992976462309
 30
0.0
 11
1100.953971780866
 21
145.2538337989986
 31
0.0
  0
LINE
  5
7B1D
330
7996
100
AcDbEntity
  8
标注
370
    -2
100
AcDbLine
 10
1100.953971780866
 20
153.9992976461727
 30
0.0
 11
1100.953971780866
 21
147.0447614934051
 31
0.0
  0
SOLID
  5
7B1E
330
7996
100
AcDbEntity
  8
标注
100
AcDbTrace
 10
1100.845638447533
 20
138.2992976462309
 30
0.0
 11
1101.0623051142
 21
138.2992976462309
 31
0.0
 12
1100.953971780866
 22
137.6492976462309
 32
0.0
 13
1100.953971780866
 23
137.6492976462309
 33
0.0
  0
SOLID
  5
7B1F
330
7996
100
AcDbEntity
  8
标注
100
AcDbTrace
 10
1100.845638447533
 20
153.9992976461727
 30
0.0
 11
1101.0623051142
 21
153.9992976461727
 31
0.0
 12
1100.953971780866
 22
154.6492976461727
 32
0.0
 13
1100.953971780866
 23
154.6492976461727
 33
0.0
  0
MTEXT
  5
7B20
330
7996
100
AcDbEntity
  8
标注
100
AcDbMText
 10
1100.953971780866
 20
146.149297646202
 30
0.0
 40
0.65
 41
0.0
 71
     5
 72
     1
  1
\A1;17"
 11
0.0000000000000001
 21
1.0
 31
0.0
 73
     1
 44
1.0
  0
POINT
  5
7B21
330
7996
100
AcDbEntity
  8
DEFPOINTS
 62
     0
100
AcDbPoint
 10
1105.362178664131
 20
137.6492976462309
 30
0.0
  0
POINT
  5
7B22
330
7996
100
AcDbEntity
  8
DEFPOINTS
 62
     0
100
AcDbPoint
 10
1105.362178664131
 20
154.6492976461727
 30
0.0
  0
POINT
  5
7B23
330
7996
100
AcDbEntity
  8
DEFPOINTS
 62
     0
100
AcDbPoint
 10
1100.953971780866
 20
154.6492976461727
 30
0.0
  0
ENDBLK
  5
7998
330
7996
100
AcDbEntity
  8
0
100
AcDbBlockEnd
  0
BLOCK
  5
79A4
330
79A3
100
AcDbEntity
  8
0
100
AcDbBlockBegin
  2
*D25
 70
     1
 10
0.0
 20
0.0
 30
0.0
  3
*D25
  1

  0
LINE
  5
7B24
330
79A3
100
AcDbEntity
  8
标注
370
    -2
100
AcDbLine
 10
1136.362178664015
 20
137.7692976462309
 30
0.0
 11
1136.362178664015
 21
133.3930756036228
 31
0.0
  0
LINE
  5
7B25
330
79A3
100
AcDbEntity
  8
标注
370
    -2
100
AcDbLine
 10
1104.362178664131
 20
137.7692976462309
 30
0.0
 11
1104.362178664131
 21
133.3930756036228
 31
0.0
  0
LINE
  5
7B26
330
79A3
100
AcDbEntity
  8
标注
370
    -2
100
AcDbLine
 10
1135.712178664015
 20
133.7130756036228
 30
0.0
 11
1121.288014271167
 21
133.7130756036228
 31
0.0
  0
LINE
  5
7B27
330
79A3
100
AcDbEntity
  8
标注
370
    -2
100
AcDbLine
 10
1105.012178664131
 20
133.7130756036228
 30
0.0
 11
1119.436343056979
 21
133.7130756036228
 31
0.0
  0
SOLID
  5
7B28
330
79A3
100
AcDbEntity
  8
标注
100
AcDbTrace
 10
1135.712178664015
 20
133.8214089369561
 30
0.0
 11
1135.712178664015
 21
133.6047422702895
 31
0.0
 12
1136.362178664015
 22
133.7130756036228
 32
0.0
 13
1136.362178664015
 23
133.7130756036228
 33
0.0
  0
SOLID
  5
7B29
330
79A3
100
AcDbEntity
  8
标注
100
AcDbTrace
 10
1105.012178664131
 20
133.8214089369561
 30
0.0
 11
1105.012178664131
 21
133.6047422702895
 31
0.0
 12
1104.362178664131
 22
133.7130756036228
 32
0.0
 13
1104.362178664131
 23
133.7130756036228
 33
0.0
  0
MTEXT
  5
7B2A
330
79A3
100
AcDbEntity
  8
标注
100
AcDbMText
 10
1120.362178664073
 20
133.7130756036228
 30
0.0
 40
0.65
 41
0.0
 71
     5
 72
     1
  1
\A1;32"
 73
     1
 44
1.0
  0
POINT
  5
7B2B
330
79A3
100
AcDbEntity
  8
DEFPOINTS
 62
     0
100
AcDbPoint
 10
1136.362178664015
 20
138.6492976462309
 30
0.0
  0
POINT
  5
7B2C
330
79A3
100
AcDbEntity
  8
DEFPOINTS
 62
     0
100
AcDbPoint
 10
1104.362178664131
 20
138.6492976462309
 30
0.0
  0
POINT
  5
7B2D
330
79A3
100
AcDbEntity
  8
DEFPOINTS
 62
     0
100
AcDbPoint
 10
1104.362178664131
 20
133.7130756036228
 30
0.0
  0
ENDBLK
  5
79A5
330
79A3
100
AcDbEntity
  8
0
100
AcDbBlockEnd
  0
BLOCK
  5
79B1
330
79B0
100
AcDbEntity
  8
0
100
AcDbBlockBegin
  2
*D26
 70
     1
 10
0.0
 20
0.0
 30
0.0
  3
*D26
  1

  0
LINE
  5
7B2E
330
79B0
100
AcDbEntity
  8
标注
370
    -2
100
AcDbLine
 10
1135.704951636844
 20
156.9951357246205
 30
0.0
 11
1136.16361560445
 21
157.4557085905383
 31
0.0
  0
MTEXT
  5
7B2F
330
79B0
100
AcDbEntity
  8
标注
100
AcDbMText
 10
1135.980962583455
 20
158.3447249952713
 30
0.0
 40
0.65
 41
0.0
 71
     5
 72
     1
  1
\A1;5-R3/8"
 11
0.7056368732402606
 21
0.7085736398735905
 31
0.0
 73
     1
 44
1.0
  0
LINE
  5
7B30
330
79B0
100
AcDbEntity
  8
标注
370
    -2
100
AcDbLine
 10
1134.968477876624
 20
156.2555968587533
 30
0.0
 11
1135.246287669238
 21
156.5345628587027
 31
0.0
  0
SOLID
  5
7B31
330
79B0
100
AcDbEntity
  8
标注
100
AcDbTrace
 10
1135.628189492524
 20
157.0715797192215
 30
0.0
 11
1135.781713781164
 21
156.9186917300195
 31
0.0
 12
1135.246287669238
 22
156.5345628587027
 32
0.0
 13
1135.246287669238
 23
156.5345628587027
 33
0.0
  0
ARC
  5
7B32
330
79B0
100
AcDbEntity
  8
标注
370
    -2
100
AcDbCircle
 10
1134.968477876624
 20
156.2555968587533
 30
0.0
 40
0.3937007874004621
100
AcDbArc
 50
358.5489713484017
 51
89.99999999999998
  0
POINT
  5
7B33
330
79B0
100
AcDbEntity
  8
DEFPOINTS
 62
     0
100
AcDbPoint
 10
1135.246287669238
 20
156.5345628587027
 30
0.0
  0
POINT
  5
7B34
330
79B0
100
AcDbEntity
  8
DEFPOINTS
 62
     0
100
AcDbPoint
 10
1134.968477876624
 20
156.2555968587533
 30
0.0
  0
ENDBLK
  5
79B2
330
79B0
100
AcDbEntity
  8
0
100
AcDbBlockEnd
  0
BLOCK
  5
79BA
330
79B9
100
AcDbEntity
  8
0
100
AcDbBlockBegin
  2
*D27
 70
     1
 10
0.0
 20
0.0
 30
0.0
  3
*D27
  1

  0
LINE
  5
7B35
330
79B9
100
AcDbEntity
  8
标注
370
    -2
100
AcDbLine
 10
1105.289633482125
 20
154.1893666535611
 30
0.0
 11
1104.999263019856
 21
154.7709034061761
 31
0.0
  0
MTEXT
  5
7B36
330
79B9
100
AcDbEntity
  8
标注
100
AcDbMText
 10
1105.050572845461
 20
155.8799004967973
 30
0.0
 40
0.65
 41
0.0
 71
     5
 72
     1
  1
\A1;4-R3/8"
 11
0.4467237881056182
 21
-0.894671927099854
 31
0.0
 73
     1
 44
1.0
  0
LINE
  5
7B37
330
79B9
100
AcDbEntity
  8
标注
370
    -2
100
AcDbLine
 10
1105.755879451521
 20
153.2555968587827
 30
0.0
 11
1105.580003944394
 21
153.6078299009463
 31
0.0
  0
SOLID
  5
7B38
330
79B9
100
AcDbEntity
  8
标注
100
AcDbTrace
 10
1105.386556274228
 20
154.2377617306059
 30
0.0
 11
1105.192710690023
 21
154.1409715765163
 31
0.0
 12
1105.580003944394
 22
153.6078299009463
 32
0.0
 13
1105.580003944394
 23
153.6078299009463
 33
0.0
  0
ARC
  5
7B39
330
79B9
100
AcDbEntity
  8
标注
370
    -2
100
AcDbCircle
 10
1105.755879451521
 20
153.2555968587827
 30
0.0
 40
0.3937007873996094
100
AcDbArc
 50
90.0
 51
163.1036886682856
  0
POINT
  5
7B3A
330
79B9
100
AcDbEntity
  8
DEFPOINTS
 62
     0
100
AcDbPoint
 10
1105.580003944394
 20
153.6078299009463
 30
0.0
  0
POINT
  5
7B3B
330
79B9
100
AcDbEntity
  8
DEFPOINTS
 62
     0
100
AcDbPoint
 10
1105.755879451521
 20
153.2555968587827
 30
0.0
  0
ENDBLK
  5
79BB
330
79B9
100
AcDbEntity
  8
0
100
AcDbBlockEnd
  0
BLOCK
  5
79C3
330
79C2
100
AcDbEntity
  8
0
100
AcDbBlockBegin
  2
*D28
 70
     1
 10
0.0
 20
0.0
 30
0.0
  3
*D28
  1

  0
LINE
  5
7B3C
330
79C2
100
AcDbEntity
  8
标注
370
    -2
100
AcDbLine
 10
1103.482178664131
 20
180.2520553898191
 30
0.0
 11
1102.876771260836
 21
180.2520553898191
 31
0.0
  0
LINE
  5
7B3D
330
79C2
100
AcDbEntity
  8
标注
370
    -2
100
AcDbLine
 10
1104.371244608824
 20
172.3114609016493
 30
0.0
 11
1102.876771260836
 21
172.3114609016493
 31
0.0
  0
LINE
  5
7B3E
330
79C2
100
AcDbEntity
  8
标注
370
    -2
100
AcDbLine
 10
1103.196771260837
 20
179.6020553898191
 30
0.0
 11
1103.196771260837
 21
176.95575200658
 31
0.0
  0
LINE
  5
7B3F
330
79C2
100
AcDbEntity
  8
标注
370
    -2
100
AcDbLine
 10
1103.196771260837
 20
172.9614609016491
 30
0.0
 11
1103.196771260837
 21
175.6077642848883
 31
0.0
  0
SOLID
  5
7B40
330
79C2
100
AcDbEntity
  8
标注
100
AcDbTrace
 10
1103.088437927503
 20
179.6020553898191
 30
0.0
 11
1103.30510459417
 21
179.6020553898191
 31
0.0
 12
1103.196771260837
 22
180.2520553898191
 32
0.0
 13
1103.196771260837
 23
180.2520553898191
 33
0.0
  0
SOLID
  5
7B41
330
79C2
100
AcDbEntity
  8
标注
100
AcDbTrace
 10
1103.088437927503
 20
172.9614609016491
 30
0.0
 11
1103.30510459417
 21
172.9614609016491
 31
0.0
 12
1103.196771260837
 22
172.3114609016493
 32
0.0
 13
1103.196771260837
 23
172.3114609016493
 33
0.0
  0
MTEXT
  5
7B42
330
79C2
100
AcDbEntity
  8
标注
100
AcDbMText
 10
1103.196771260837
 20
176.2817581457344
 30
0.0
 40
0.65
 41
0.0
 71
     5
 72
     1
  1
\A1;8"
 11
0.0000000000000001
 21
1.0
 31
0.0
 73
     1
 44
1.0
  0
POINT
  5
7B43
330
79C2
100
AcDbEntity
  8
DEFPOINTS
 62
     0
100
AcDbPoint
 10
1104.362178664131
 20
180.2520553898191
 30
0.0
  0
POINT
  5
7B44
330
79C2
100
AcDbEntity
  8
DEFPOINTS
 62
     0
100
AcDbPoint
 10
1105.251244608824
 20
172.3114609016493
 30
0.0
  0
POINT
  5
7B45
330
79C2
100
AcDbEntity
  8
DEFPOINTS
 62
     0
100
AcDbPoint
 10
1103.196771260837
 20
172.3114609016493
 30
0.0
  0
ENDBLK
  5
79C4
330
79C2
100
AcDbEntity
  8
0
100
AcDbBlockEnd
  0
BLOCK
  5
79D0
330
79CF
100
AcDbEntity
  8
0
100
AcDbBlockBegin
  2
*D29
 70
     1
 10
0.0
 20
0.0
 30
0.0
  3
*D29
  1

  0
LINE
  5
7B46
330
79CF
100
AcDbEntity
  8
标注
370
    -2
100
AcDbLine
 10
1137.242178664015
 20
180.2520553898191
 30
0.0
 11
1139.283592496251
 21
180.2520553898191
 31
0.0
  0
LINE
  5
7B47
330
79CF
100
AcDbEntity
  8
标注
370
    -2
100
AcDbLine
 10
1137.104630280816
 20
170.1897237893847
 30
0.0
 11
1139.283592496251
 21
170.1897237893847
 31
0.0
  0
LINE
  5
7B48
330
79CF
100
AcDbEntity
  8
标注
370
    -2
100
AcDbLine
 10
1138.963592496251
 20
179.6020553898191
 30
0.0
 11
1138.963592496251
 21
176.1163534368052
 31
0.0
  0
LINE
  5
7B49
330
79CF
100
AcDbEntity
  8
标注
370
    -2
100
AcDbLine
 10
1138.963592496251
 20
170.8397237893848
 30
0.0
 11
1138.963592496251
 21
174.3254257423986
 31
0.0
  0
SOLID
  5
7B4A
330
79CF
100
AcDbEntity
  8
标注
100
AcDbTrace
 10
1138.855259162918
 20
179.6020553898191
 30
0.0
 11
1139.071925829584
 21
179.6020553898191
 31
0.0
 12
1138.963592496251
 22
180.2520553898191
 32
0.0
 13
1138.963592496251
 23
180.2520553898191
 33
0.0
  0
SOLID
  5
7B4B
330
79CF
100
AcDbEntity
  8
标注
100
AcDbTrace
 10
1138.855259162918
 20
170.8397237893848
 30
0.0
 11
1139.071925829584
 21
170.8397237893848
 31
0.0
 12
1138.963592496251
 22
170.1897237893847
 32
0.0
 13
1138.963592496251
 23
170.1897237893847
 33
0.0
  0
MTEXT
  5
7B4C
330
79CF
100
AcDbEntity
  8
标注
100
AcDbMText
 10
1138.963592496251
 20
175.2208895896021
 30
0.0
 40
0.65
 41
0.0
 71
     5
 72
     1
  1
\A1;10"
 11
0.0000000000000001
 21
1.0
 31
0.0
 73
     1
 44
1.0
  0
POINT
  5
7B4D
330
79CF
100
AcDbEntity
  8
DEFPOINTS
 62
     0
100
AcDbPoint
 10
1136.362178664015
 20
180.2520553898191
 30
0.0
  0
POINT
  5
7B4E
330
79CF
100
AcDbEntity
  8
DEFPOINTS
 62
     0
100
AcDbPoint
 10
1136.224630280816
 20
170.1897237893847
 30
0.0
  0
POINT
  5
7B4F
330
79CF
100
AcDbEntity
  8
DEFPOINTS
 62
     0
100
AcDbPoint
 10
1138.963592496251
 20
170.1897237893847
 30
0.0
  0
ENDBLK
  5
79D1
330
79CF
100
AcDbEntity
  8
0
100
AcDbBlockEnd
  0
BLOCK
  5
79DD
330
79DC
100
AcDbEntity
  8
0
100
AcDbBlockBegin
  2
*D30
 70
     1
 10
0.0
 20
0.0
 30
0.0
  3
*D30
  1

  0
LINE
  5
7B50
330
79DC
100
AcDbEntity
  8
标注
370
    -2
100
AcDbLine
 10
1135.7789757872
 20
170.0507709463767
 30
0.0
 11
1136.28374080054
 21
169.6412440470058
 31
0.0
  0
MTEXT
  5
7B51
330
79DC
100
AcDbEntity
  8
标注
100
AcDbMText
 10
1134.38270481726
 20
171.6841163083834
 30
0.0
 40
0.65
 41
0.0
 71
     5
 72
     1
  1
\A1;R3/8"
 11
0.7765615589838497
 21
-0.6300413836475926
 31
0.0
 73
     1
 44
1.0
  0
LINE
  5
7B52
330
79DC
100
AcDbEntity
  8
标注
370
    -2
100
AcDbLine
 10
1134.968477876624
 20
170.7083456345844
 30
0.0
 11
1135.274210773861
 21
170.4602978457477
 31
0.0
  0
SOLID
  5
7B53
330
79DC
100
AcDbEntity
  8
标注
100
AcDbTrace
 10
1135.847230270429
 20
170.1348984485999
 30
0.0
 11
1135.710721303972
 21
169.9666434441535
 31
0.0
 12
1135.274210773861
 22
170.4602978457477
 32
0.0
 13
1135.274210773861
 23
170.4602978457477
 33
0.0
  0
ARC
  5
7B54
330
79DC
100
AcDbEntity
  8
标注
370
    -2
100
AcDbCircle
 10
1134.968477876624
 20
170.7083456345844
 30
0.0
 40
0.393700787400121
100
AcDbArc
 50
268.8525960680906
 51
7.516833775809831
  0
POINT
  5
7B55
330
79DC
100
AcDbEntity
  8
DEFPOINTS
 62
     0
100
AcDbPoint
 10
1135.274210773861
 20
170.4602978457477
 30
0.0
  0
POINT
  5
7B56
330
79DC
100
AcDbEntity
  8
DEFPOINTS
 62
     0
100
AcDbPoint
 10
1134.968477876624
 20
170.7083456345844
 30
0.0
  0
ENDBLK
  5
79DE
330
79DC
100
AcDbEntity
  8
0
100
AcDbBlockEnd
  0
BLOCK
  5
79E6
330
79E5
100
AcDbEntity
  8
0
100
AcDbBlockBegin
  2
*D31
 70
     1
 10
0.0
 20
0.0
 30
0.0
  3
*D31
  1

  0
LINE
  5
7B57
330
79E5
100
AcDbEntity
  8
标注
370
    -2
100
AcDbLine
 10
1116.708952395035
 20
171.9753720636371
 30
0.0
 11
1117.170107970196
 21
171.5172939747728
 31
0.0
  0
MTEXT
  5
7B58
330
79E5
100
AcDbEntity
  8
标注
100
AcDbMText
 10
1115.430537772169
 20
173.7005345679518
 30
0.0
 40
0.65
 41
0.0
 71
     5
 72
     1
  1
\A1;R3/8"
 11
0.7094701156328545
 21
-0.7047355213297426
 31
0.0
 73
     1
 44
1.0
  0
LINE
  5
7B59
330
79E5
100
AcDbEntity
  8
标注
370
    -2
100
AcDbLine
 10
1115.968477876712
 20
172.7109050821578
 30
0.0
 11
1116.247796819873
 21
172.4334501525014
 31
0.0
  0
SOLID
  5
7B5A
330
79E5
100
AcDbEntity
  8
标注
100
AcDbTrace
 10
1116.785298743179
 20
172.052231326164
 30
0.0
 11
1116.632606046891
 21
171.8985128011102
 31
0.0
 12
1116.247796819873
 22
172.4334501525014
 32
0.0
 13
1116.247796819873
 23
172.4334501525014
 33
0.0
  0
ARC
  5
7B5B
330
79E5
100
AcDbEntity
  8
标注
370
    -2
100
AcDbCircle
 10
1115.968477876712
 20
172.7109050821578
 30
0.0
 40
0.3937007874002347
100
AcDbArc
 50
267.2870574572279
 51
1.761828409283117
  0
POINT
  5
7B5C
330
79E5
100
AcDbEntity
  8
DEFPOINTS
 62
     0
100
AcDbPoint
 10
1116.247796819873
 20
172.4334501525014
 30
0.0
  0
POINT
  5
7B5D
330
79E5
100
AcDbEntity
  8
DEFPOINTS
 62
     0
100
AcDbPoint
 10
1115.968477876712
 20
172.7109050821578
 30
0.0
  0
ENDBLK
  5
79E7
330
79E5
100
AcDbEntity
  8
0
100
AcDbBlockEnd
  0
BLOCK
  5
79EF
330
79EE
100
AcDbEntity
  8
0
100
AcDbBlockBegin
  2
*D32
 70
     1
 10
0.0
 20
0.0
 30
0.0
  3
*D32
  1

  0
LINE
  5
7B5E
330
79EE
100
AcDbEntity
  8
标注
370
    -2
100
AcDbLine
 10
1135.440918821493
 20
102.9269107860633
 30
0.0
 11
1135.440918821493
 21
100.45367402825
 31
0.0
  0
LINE
  5
7B5F
330
79EE
100
AcDbEntity
  8
标注
370
    -2
100
AcDbLine
 10
1105.283438506653
 20
102.9269107860633
 30
0.0
 11
1105.283438506653
 21
100.45367402825
 31
0.0
  0
LINE
  5
7B60
330
79EE
100
AcDbEntity
  8
标注
370
    -2
100
AcDbLine
 10
1134.790918821493
 20
100.77367402825
 30
0.0
 11
1122.045313043336
 21
100.77367402825
 31
0.0
  0
LINE
  5
7B61
330
79EE
100
AcDbEntity
  8
标注
370
    -2
100
AcDbLine
 10
1105.933438506653
 20
100.77367402825
 30
0.0
 11
1118.67904428481
 21
100.77367402825
 31
0.0
  0
SOLID
  5
7B62
330
79EE
100
AcDbEntity
  8
标注
100
AcDbTrace
 10
1134.790918821493
 20
100.8820073615833
 30
0.0
 11
1134.790918821493
 21
100.6653406949167
 31
0.0
 12
1135.440918821493
 22
100.77367402825
 32
0.0
 13
1135.440918821493
 23
100.77367402825
 33
0.0
  0
SOLID
  5
7B63
330
79EE
100
AcDbEntity
  8
标注
100
AcDbTrace
 10
1105.933438506653
 20
100.8820073615833
 30
0.0
 11
1105.933438506653
 21
100.6653406949167
 31
0.0
 12
1105.283438506653
 22
100.77367402825
 32
0.0
 13
1105.283438506653
 23
100.77367402825
 33
0.0
  0
MTEXT
  5
7B64
330
79EE
100
AcDbEntity
  8
标注
100
AcDbMText
 10
1120.362178664073
 20
100.77367402825
 30
0.0
 40
0.65
 41
0.0
 71
     5
 72
     1
  1
\A1;30 1/8"
 73
     1
 44
1.0
  0
POINT
  5
7B65
330
79EE
100
AcDbEntity
  8
DEFPOINTS
 62
     0
100
AcDbPoint
 10
1135.440918821493
 20
103.8069107860633
 30
0.0
  0
POINT
  5
7B66
330
79EE
100
AcDbEntity
  8
DEFPOINTS
 62
     0
100
AcDbPoint
 10
1105.283438506653
 20
103.8069107860633
 30
0.0
  0
POINT
  5
7B67
330
79EE
100
AcDbEntity
  8
DEFPOINTS
 62
     0
100
AcDbPoint
 10
1105.283438506653
 20
100.77367402825
 30
0.0
  0
ENDBLK
  5
79F0
330
79EE
100
AcDbEntity
  8
0
100
AcDbBlockEnd
  0
BLOCK
  5
79FC
330
79FB
100
AcDbEntity
  8
0
100
AcDbBlockBegin
  2
*D33
 70
     1
 10
0.0
 20
0.0
 30
0.0
  3
*D33
  1

  0
LINE
  5
7B68
330
79FB
100
AcDbEntity
  8
标注
370
    -2
100
AcDbLine
 10
1104.875879451521
 20
103.3344698411661
 30
0.0
 11
1102.719920498143
 21
103.3344698411661
 31
0.0
  0
LINE
  5
7B69
330
79FB
100
AcDbEntity
  8
标注
370
    -2
100
AcDbLine
 10
1104.875879451521
 20
118.4919501560758
 30
0.0
 11
1102.719920498143
 21
118.4919501560758
 31
0.0
  0
LINE
  5
7B6A
330
79FB
100
AcDbEntity
  8
标注
370
    -2
100
AcDbLine
 10
1103.039920498143
 20
103.9844698411661
 30
0.0
 11
1103.039920498143
 21
109.2604473792485
 31
0.0
  0
LINE
  5
7B6B
330
79FB
100
AcDbEntity
  8
标注
370
    -2
100
AcDbLine
 10
1103.039920498143
 20
117.8419501560758
 30
0.0
 11
1103.039920498143
 21
112.5659726179934
 31
0.0
  0
SOLID
  5
7B6C
330
79FB
100
AcDbEntity
  8
标注
100
AcDbTrace
 10
1102.93158716481
 20
103.9844698411661
 30
0.0
 11
1103.148253831476
 21
103.9844698411661
 31
0.0
 12
1103.039920498143
 22
103.3344698411661
 32
0.0
 13
1103.039920498143
 23
103.3344698411661
 33
0.0
  0
SOLID
  5
7B6D
330
79FB
100
AcDbEntity
  8
标注
100
AcDbTrace
 10
1102.93158716481
 20
117.8419501560758
 30
0.0
 11
1103.148253831476
 21
117.8419501560758
 31
0.0
 12
1103.039920498143
 22
118.4919501560758
 32
0.0
 13
1103.039920498143
 23
118.4919501560758
 33
0.0
  0
MTEXT
  5
7B6E
330
79FB
100
AcDbEntity
  8
标注
100
AcDbMText
 10
1103.039920498143
 20
110.9132099986211
 30
0.0
 40
0.65
 41
0.0
 71
     5
 72
     1
  1
\A1;15 1/8"
 11
0.0000000000000001
 21
1.0
 31
0.0
 73
     1
 44
1.0
  0
POINT
  5
7B6F
330
79FB
100
AcDbEntity
  8
DEFPOINTS
 62
     0
100
AcDbPoint
 10
1105.755879451521
 20
103.3344698411661
 30
0.0
  0
POINT
  5
7B70
330
79FB
100
AcDbEntity
  8
DEFPOINTS
 62
     0
100
AcDbPoint
 10
1105.755879451521
 20
118.4919501560758
 30
0.0
  0
POINT
  5
7B71
330
79FB
100
AcDbEntity
  8
DEFPOINTS
 62
     0
100
AcDbPoint
 10
1103.039920498143
 20
118.4919501560758
 30
0.0
  0
ENDBLK
  5
79FD
330
79FB
100
AcDbEntity
  8
0
100
AcDbBlockEnd
  0
BLOCK
  5
7A09
330
7A08
100
AcDbEntity
  8
0
100
AcDbBlockBegin
  2
*D34
 70
     1
 10
0.0
 20
0.0
 30
0.0
  3
*D34
  1

  0
LINE
  5
7B72
330
7A08
100
AcDbEntity
  8
标注
370
    -2
100
AcDbLine
 10
1135.848477876625
 20
121.4919501560639
 30
0.0
 11
1138.232526729268
 21
121.4919501560639
 31
0.0
  0
LINE
  5
7B73
330
7A08
100
AcDbEntity
  8
标注
370
    -2
100
AcDbLine
 10
1135.848477876625
 20
103.3344698411661
 30
0.0
 11
1138.232526729268
 21
103.3344698411661
 31
0.0
  0
LINE
  5
7B74
330
7A08
100
AcDbEntity
  8
标注
370
    -2
100
AcDbLine
 10
1137.912526729268
 20
120.8419501560639
 30
0.0
 11
1137.912526729268
 21
114.0659726179874
 31
0.0
  0
LINE
  5
7B75
330
7A08
100
AcDbEntity
  8
标注
370
    -2
100
AcDbLine
 10
1137.912526729268
 20
103.9844698411661
 30
0.0
 11
1137.912526729268
 21
110.7604473792426
 31
0.0
  0
SOLID
  5
7B76
330
7A08
100
AcDbEntity
  8
标注
100
AcDbTrace
 10
1137.804193395934
 20
120.8419501560639
 30
0.0
 11
1138.020860062601
 21
120.8419501560639
 31
0.0
 12
1137.912526729268
 22
121.4919501560639
 32
0.0
 13
1137.912526729268
 23
121.4919501560639
 33
0.0
  0
SOLID
  5
7B77
330
7A08
100
AcDbEntity
  8
标注
100
AcDbTrace
 10
1137.804193395934
 20
103.9844698411661
 30
0.0
 11
1138.020860062601
 21
103.9844698411661
 31
0.0
 12
1137.912526729268
 22
103.3344698411661
 32
0.0
 13
1137.912526729268
 23
103.3344698411661
 33
0.0
  0
MTEXT
  5
7B78
330
7A08
100
AcDbEntity
  8
标注
100
AcDbMText
 10
1137.912526729268
 20
112.4132099986152
 30
0.0
 40
0.65
 41
0.0
 71
     5
 72
     1
  1
\A1;18 1/8"
 11
0.0000000000000001
 21
1.0
 31
0.0
 73
     1
 44
1.0
  0
POINT
  5
7B79
330
7A08
100
AcDbEntity
  8
DEFPOINTS
 62
     0
100
AcDbPoint
 10
1134.968477876625
 20
121.4919501560639
 30
0.0
  0
POINT
  5
7B7A
330
7A08
100
AcDbEntity
  8
DEFPOINTS
 62
     0
100
AcDbPoint
 10
1134.968477876625
 20
103.3344698411661
 30
0.0
  0
POINT
  5
7B7B
330
7A08
100
AcDbEntity
  8
DEFPOINTS
 62
     0
100
AcDbPoint
 10
1137.912526729268
 20
103.3344698411661
 30
0.0
  0
ENDBLK
  5
7A0A
330
7A08
100
AcDbEntity
  8
0
100
AcDbBlockEnd
  0
BLOCK
  5
7A16
330
7A15
100
AcDbEntity
  8
0
100
AcDbBlockBegin
  2
*D35
 70
     1
 10
0.0
 20
0.0
 30
0.0
  3
*D35
  1

  0
LINE
  5
7B7C
330
7A15
100
AcDbEntity
  8
标注
370
    -2
100
AcDbLine
 10
1135.580822802342
 20
102.8662156352885
 30
0.0
 11
1135.935428720393
 21
102.3214637258071
 31
0.0
  0
MTEXT
  5
7B7D
330
7A15
100
AcDbEntity
  8
标注
100
AcDbMText
 10
1134.573493511251
 20
104.9823665217169
 30
0.0
 40
0.65
 41
0.0
 71
     5
 72
     1
  1
\A1;4-R1/2"
 11
0.5455475662313046
 21
-0.8380798607406699
 31
0.0
 73
     1
 44
1.0
  0
LINE
  5
7B7E
330
7A15
100
AcDbEntity
  8
标注
370
    -2
100
AcDbLine
 10
1134.968477876625
 20
103.8069107860634
 30
0.0
 11
1135.226216884292
 21
103.4109675447699
 31
0.0
  0
SOLID
  5
7B7F
330
7A15
100
AcDbEntity
  8
标注
100
AcDbTrace
 10
1135.671614787256
 20
102.9253166216302
 30
0.0
 11
1135.490030817429
 21
102.8071146489468
 31
0.0
 12
1135.226216884292
 22
103.4109675447699
 32
0.0
 13
1135.226216884292
 23
103.4109675447699
 33
0.0
  0
ARC
  5
7B80
330
7A15
100
AcDbEntity
  8
标注
370
    -2
100
AcDbCircle
 10
1134.968477876625
 20
103.8069107860634
 30
0.0
 40
0.4724409448801909
100
AcDbArc
 50
270.0000000000001
 51
341.8704316601195
  0
POINT
  5
7B81
330
7A15
100
AcDbEntity
  8
DEFPOINTS
 62
     0
100
AcDbPoint
 10
1135.226216884292
 20
103.4109675447699
 30
0.0
  0
POINT
  5
7B82
330
7A15
100
AcDbEntity
  8
DEFPOINTS
 62
     0
100
AcDbPoint
 10
1134.968477876625
 20
103.8069107860634
 30
0.0
  0
ENDBLK
  5
7A17
330
7A15
100
AcDbEntity
  8
0
100
AcDbBlockEnd
  0
BLOCK
  5
7A1F
330
7A1E
100
AcDbEntity
  8
0
100
AcDbBlockBegin
  2
*D36
 70
     1
 10
0.0
 20
0.0
 30
0.0
  3
*D36
  1

  0
LINE
  5
7B83
330
7A1E
100
AcDbEntity
  8
标注
370
    -2
100
AcDbLine
 10
1117.694682599577
 20
117.992092217273
 30
0.0
 11
1118.01944525813
 21
117.4290387423619
 31
0.0
  0
MTEXT
  5
7B84
330
7A1E
100
AcDbEntity
  8
标注
100
AcDbMText
 10
1117.041512065369
 20
120.0034754309798
 30
0.0
 40
0.65
 41
0.0
 71
     5
 72
     1
  1
\A1;R1/2"
 11
0.4996348593125097
 21
-0.8662361152478975
 31
0.0
 73
     1
 44
1.0
  0
LINE
  5
7B85
330
7A1E
100
AcDbEntity
  8
标注
370
    -2
100
AcDbLine
 10
1117.133871975996
 20
118.9643911009609
 30
0.0
 11
1117.369919941024
 21
118.5551456921841
 31
0.0
  0
SOLID
  5
7B86
330
7A1E
100
AcDbEntity
  8
标注
100
AcDbTrace
 10
1117.788524845396
 20
118.0462193270319
 30
0.0
 11
1117.600840353759
 21
117.9379651075142
 31
0.0
 12
1117.369919941024
 22
118.5551456921841
 32
0.0
 13
1117.369919941024
 23
118.5551456921841
 33
0.0
  0
ARC
  5
7B87
330
7A1E
100
AcDbEntity
  8
标注
370
    -2
100
AcDbCircle
 10
1117.133871975996
 20
118.9643911009609
 30
0.0
 40
0.4724409448798498
100
AcDbArc
 50
270.0
 51
338.784186749136
  0
POINT
  5
7B88
330
7A1E
100
AcDbEntity
  8
DEFPOINTS
 62
     0
100
AcDbPoint
 10
1117.369919941024
 20
118.5551456921841
 30
0.0
  0
POINT
  5
7B89
330
7A1E
100
AcDbEntity
  8
DEFPOINTS
 62
     0
100
AcDbPoint
 10
1117.133871975996
 20
118.9643911009609
 30
0.0
  0
ENDBLK
  5
7A20
330
7A1E
100
AcDbEntity
  8
0
100
AcDbBlockEnd
  0
BLOCK
  5
7A28
330
7A27
100
AcDbEntity
  8
0
100
AcDbBlockBegin
  2
*D37
 70
     1
 10
0.0
 20
0.0
 30
0.0
  3
*D37
  1

  0
LINE
  5
7B8A
330
7A27
100
AcDbEntity
  8
标注
370
    -2
100
AcDbLine
 10
1120.146011079768
 20
122.075940857151
 30
0.0
 11
1119.926392876692
 21
122.6877151986186
 31
0.0
  0
MTEXT
  5
7B8B
330
7A27
100
AcDbEntity
  8
标注
100
AcDbMText
 10
1120.508330853044
 20
122.8917439178633
 30
0.0
 40
0.65
 41
0.0
 71
     5
 72
     1
  1
\A1;R1/2"
 11
0.3378741585777397
 21
-0.9411912945652357
 31
0.0
 73
     1
 44
1.0
  0
LINE
  5
7B8C
330
7A27
100
AcDbEntity
  8
标注
370
    -2
100
AcDbLine
 10
1120.525254869572
 20
121.0195092111667
 30
0.0
 11
1120.365629282844
 21
121.4641665156837
 31
0.0
  0
SOLID
  5
7B8D
330
7A27
100
AcDbEntity
  8
标注
100
AcDbTrace
 10
1120.247973470013
 20
122.112543890997
 30
0.0
 11
1120.044048689523
 21
122.0393378233052
 31
0.0
 12
1120.365629282844
 22
121.4641665156837
 32
0.0
 13
1120.365629282844
 23
121.4641665156837
 33
0.0
  0
ARC
  5
7B8E
330
7A27
100
AcDbEntity
  8
标注
370
    -2
100
AcDbCircle
 10
1120.525254869572
 20
121.0195092111667
 30
0.0
 40
0.472440944879736
100
AcDbArc
 50
90.0
 51
148.5557504632996
  0
POINT
  5
7B8F
330
7A27
100
AcDbEntity
  8
DEFPOINTS
 62
     0
100
AcDbPoint
 10
1120.365629282844
 20
121.4641665156837
 30
0.0
  0
POINT
  5
7B90
330
7A27
100
AcDbEntity
  8
DEFPOINTS
 62
     0
100
AcDbPoint
 10
1120.525254869572
 20
121.0195092111667
 30
0.0
  0
ENDBLK
  5
7A29
330
7A27
100
AcDbEntity
  8
0
100
AcDbBlockEnd
  0
BLOCK
  5
7C8E
330
7C8D
100
AcDbEntity
  8
0
100
AcDbBlockBegin
  2
*D38
 70
     1
 10
0.0
 20
0.0
 30
0.0
  3
*D38
  1

  0
LINE
  5
7C90
330
7C8D
100
AcDbEntity
  8
标注
370
    -2
100
AcDbLine
 10
1158.700856327038
 20
107.0912979703644
 30
0.0
 11
1158.700856327038
 21
104.1161975752925
 31
0.0
  0
LINE
  5
7C91
330
7C8D
100
AcDbEntity
  8
标注
370
    -2
100
AcDbLine
 10
1188.858276327058
 20
107.0912979703644
 30
0.0
 11
1188.858276327058
 21
104.1161975752925
 31
0.0
  0
LINE
  5
7C92
330
7C8D
100
AcDbEntity
  8
标注
370
    -2
100
AcDbLine
 10
1159.350856327038
 20
104.4361975752924
 30
0.0
 11
1172.096431947785
 21
104.4361975752924
 31
0.0
  0
LINE
  5
7C93
330
7C8D
100
AcDbEntity
  8
标注
370
    -2
100
AcDbLine
 10
1188.208276327058
 20
104.4361975752924
 30
0.0
 11
1175.462700706312
 21
104.4361975752924
 31
0.0
  0
SOLID
  5
7C94
330
7C8D
100
AcDbEntity
  8
标注
100
AcDbTrace
 10
1159.350856327038
 20
104.5445309086258
 30
0.0
 11
1159.350856327038
 21
104.3278642419591
 31
0.0
 12
1158.700856327038
 22
104.4361975752924
 32
0.0
 13
1158.700856327038
 23
104.4361975752924
 33
0.0
  0
SOLID
  5
7C95
330
7C8D
100
AcDbEntity
  8
标注
100
AcDbTrace
 10
1188.208276327058
 20
104.5445309086258
 30
0.0
 11
1188.208276327058
 21
104.3278642419591
 31
0.0
 12
1188.858276327058
 22
104.4361975752924
 32
0.0
 13
1188.858276327058
 23
104.4361975752924
 33
0.0
  0
MTEXT
  5
7C96
330
7C8D
100
AcDbEntity
  8
标注
100
AcDbMText
 10
1173.779566327048
 20
104.4361975752924
 30
0.0
 40
0.65
 41
0.0
 71
     5
 72
     1
  1
\A1;30 1/8"
 73
     1
 44
1.0
  0
POINT
  5
7C97
330
7C8D
100
AcDbEntity
  8
DEFPOINTS
 62
     0
100
AcDbPoint
 10
1158.700856327038
 20
107.9712979703644
 30
0.0
  0
POINT
  5
7C98
330
7C8D
100
AcDbEntity
  8
DEFPOINTS
 62
     0
100
AcDbPoint
 10
1188.858276327058
 20
107.9712979703644
 30
0.0
  0
POINT
  5
7C99
330
7C8D
100
AcDbEntity
  8
DEFPOINTS
 62
     0
100
AcDbPoint
 10
1188.858276327058
 20
104.4361975752924
 30
0.0
  0
ENDBLK
  5
7C8F
330
7C8D
100
AcDbEntity
  8
0
100
AcDbBlockEnd
  0
BLOCK
  5
7C9C
330
7C9B
100
AcDbEntity
  8
0
100
AcDbBlockBegin
  2
*D39
 70
     1
 10
0.0
 20
0.0
 30
0.0
  3
*D39
  1

  0
LINE
  5
7C9E
330
7C9B
100
AcDbEntity
  8
标注
370
    -2
100
AcDbLine
 10
1189.265836327058
 20
107.4988579703667
 30
0.0
 11
1192.088898345164
 21
107.4988579703667
 31
0.0
  0
LINE
  5
7C9F
330
7C9B
100
AcDbEntity
  8
标注
370
    -2
100
AcDbLine
 10
1189.265836327058
 20
123.6563059703648
 30
0.0
 11
1192.088898345164
 21
123.6563059703648
 31
0.0
  0
LINE
  5
7CA0
330
7C9B
100
AcDbEntity
  8
标注
370
    -2
100
AcDbLine
 10
1191.768898345164
 20
108.1488579703667
 30
0.0
 11
1191.768898345164
 21
113.9248193509933
 31
0.0
  0
LINE
  5
7CA1
330
7C9B
100
AcDbEntity
  8
标注
370
    -2
100
AcDbLine
 10
1191.768898345164
 20
123.0063059703648
 30
0.0
 11
1191.768898345164
 21
117.2303445897382
 31
0.0
  0
SOLID
  5
7CA2
330
7C9B
100
AcDbEntity
  8
标注
100
AcDbTrace
 10
1191.660565011831
 20
108.1488579703667
 30
0.0
 11
1191.877231678498
 21
108.1488579703667
 31
0.0
 12
1191.768898345164
 22
107.4988579703667
 32
0.0
 13
1191.768898345164
 23
107.4988579703667
 33
0.0
  0
SOLID
  5
7CA3
330
7C9B
100
AcDbEntity
  8
标注
100
AcDbTrace
 10
1191.660565011831
 20
123.0063059703648
 30
0.0
 11
1191.877231678498
 21
123.0063059703648
 31
0.0
 12
1191.768898345164
 22
123.6563059703648
 32
0.0
 13
1191.768898345164
 23
123.6563059703648
 33
0.0
  0
MTEXT
  5
7CA4
330
7C9B
100
AcDbEntity
  8
标注
100
AcDbMText
 10
1191.768898345164
 20
115.5775819703659
 30
0.0
 40
0.65
 41
0.0
 71
     5
 72
     1
  1
\A1;16 1/8"
 11
0.0000000000000001
 21
1.0
 31
0.0
 73
     1
 44
1.0
  0
POINT
  5
7CA5
330
7C9B
100
AcDbEntity
  8
DEFPOINTS
 62
     0
100
AcDbPoint
 10
1188.385836327058
 20
107.4988579703667
 30
0.0
  0
POINT
  5
7CA6
330
7C9B
100
AcDbEntity
  8
DEFPOINTS
 62
     0
100
AcDbPoint
 10
1188.385836327058
 20
123.6563059703648
 30
0.0
  0
POINT
  5
7CA7
330
7C9B
100
AcDbEntity
  8
DEFPOINTS
 62
     0
100
AcDbPoint
 10
1191.768898345164
 20
123.6563059703648
 30
0.0
  0
ENDBLK
  5
7C9D
330
7C9B
100
AcDbEntity
  8
0
100
AcDbBlockEnd
  0
BLOCK
  5
7CAA
330
7CA9
100
AcDbEntity
  8
0
100
AcDbBlockBegin
  2
*D40
 70
     1
 10
0.0
 20
0.0
 30
0.0
  3
*D40
  1

  0
LINE
  5
7CB2
330
7CA9
100
AcDbEntity
  8
标注
370
    -2
100
AcDbLine
 10
1158.242571514858
 20
107.3439042522174
 30
0.0
 11
1157.703592925424
 21
106.9805833470504
 31
0.0
  0
MTEXT
  5
7CB3
330
7CA9
100
AcDbEntity
  8
标注
100
AcDbMText
 10
1159.803115025615
 20
108.8493087688254
 30
0.0
 40
0.65
 41
0.0
 71
     5
 72
     1
  1
\A1;4-R1/2"
 11
0.829197829899131
 21
0.5589552387182467
 31
0.0
 73
     1
 44
1.0
  0
LINE
  5
7CB4
330
7CA9
100
AcDbEntity
  8
标注
370
    -2
100
AcDbLine
 10
1159.173296327051
 20
107.9712979703644
 30
0.0
 11
1158.781550104293
 21
107.7072251573842
 31
0.0
  0
SOLID
  5
7CB5
330
7CA9
100
AcDbEntity
  8
标注
100
AcDbTrace
 10
1158.182018030664
 20
107.4337340171231
 30
0.0
 11
1158.303124999053
 21
107.2540744873116
 31
0.0
 12
1158.781550104293
 22
107.7072251573842
 32
0.0
 13
1158.781550104293
 23
107.7072251573842
 33
0.0
  0
POINT
  5
7CB6
330
7CA9
100
AcDbEntity
  8
DEFPOINTS
 62
     0
100
AcDbPoint
 10
1158.781550104293
 20
107.7072251573842
 30
0.0
  0
POINT
  5
7CB7
330
7CA9
100
AcDbEntity
  8
DEFPOINTS
 62
     0
100
AcDbPoint
 10
1159.173296327051
 20
107.9712979703644
 30
0.0
  0
ENDBLK
  5
7CAB
330
7CA9
100
AcDbEntity
  8
0
100
AcDbBlockEnd
  0
BLOCK
  5
7CBA
330
7CB9
100
AcDbEntity
  8
0
100
AcDbBlockBegin
  2
*D41
 70
     1
 10
0.0
 20
0.0
 30
0.0
  3
*D41
  1

  0
LINE
  5
7CBC
330
7CB9
100
AcDbEntity
  8
标注
370
    -2
100
AcDbLine
 10
1158.779871917056
 20
136.6722057972147
 30
0.0
 11
1158.779871917056
 21
133.6544309879646
 31
0.0
  0
LINE
  5
7CBD
330
7CB9
100
AcDbEntity
  8
标注
370
    -2
100
AcDbLine
 10
1188.779260737038
 20
136.6722057972147
 30
0.0
 11
1188.779260737038
 21
133.6544309879646
 31
0.0
  0
LINE
  5
7CBE
330
7CB9
100
AcDbEntity
  8
标注
370
    -2
100
AcDbLine
 10
1159.429871917056
 20
133.9744309879645
 30
0.0
 11
1172.853730719953
 21
133.9744309879645
 31
0.0
  0
LINE
  5
7CBF
330
7CB9
100
AcDbEntity
  8
标注
370
    -2
100
AcDbLine
 10
1188.129260737038
 20
133.9744309879645
 30
0.0
 11
1174.705401934141
 21
133.9744309879645
 31
0.0
  0
SOLID
  5
7CC0
330
7CB9
100
AcDbEntity
  8
标注
100
AcDbTrace
 10
1159.429871917056
 20
134.0827643212979
 30
0.0
 11
1159.429871917056
 21
133.8660976546313
 31
0.0
 12
1158.779871917056
 22
133.9744309879645
 32
0.0
 13
1158.779871917056
 23
133.9744309879645
 33
0.0
  0
SOLID
  5
7CC1
330
7CB9
100
AcDbEntity
  8
标注
100
AcDbTrace
 10
1188.129260737038
 20
134.0827643212979
 30
0.0
 11
1188.129260737038
 21
133.8660976546313
 31
0.0
 12
1188.779260737038
 22
133.9744309879645
 32
0.0
 13
1188.779260737038
 23
133.9744309879645
 33
0.0
  0
MTEXT
  5
7CC2
330
7CB9
100
AcDbEntity
  8
标注
100
AcDbMText
 10
1173.779566327047
 20
133.9744309879645
 30
0.0
 40
0.65
 41
0.0
 71
     5
 72
     1
  1
\A1;30"
 73
     1
 44
1.0
  0
POINT
  5
7CC3
330
7CB9
100
AcDbEntity
  8
DEFPOINTS
 62
     0
100
AcDbPoint
 10
1158.779871917056
 20
137.5522057972147
 30
0.0
  0
POINT
  5
7CC4
330
7CB9
100
AcDbEntity
  8
DEFPOINTS
 62
     0
100
AcDbPoint
 10
1188.779260737038
 20
137.5522057972147
 30
0.0
  0
POINT
  5
7CC5
330
7CB9
100
AcDbEntity
  8
DEFPOINTS
 62
     0
100
AcDbPoint
 10
1188.779260737038
 20
133.9744309879645
 30
0.0
  0
ENDBLK
  5
7CBB
330
7CB9
100
AcDbEntity
  8
0
100
AcDbBlockEnd
  0
BLOCK
  5
7CC8
330
7CC7
100
AcDbEntity
  8
0
100
AcDbBlockBegin
  2
*D42
 70
     1
 10
0.0
 20
0.0
 30
0.0
  3
*D42
  1

  0
LINE
  5
7CCA
330
7CC7
100
AcDbEntity
  8
标注
370
    -2
100
AcDbLine
 10
1157.780582577037
 20
136.1268236996693
 30
0.0
 11
1157.780582577037
 21
131.613538442364
 31
0.0
  0
LINE
  5
7CCB
330
7CC7
100
AcDbEntity
  8
标注
370
    -2
100
AcDbLine
 10
1189.778550077043
 20
136.1268236996693
 30
0.0
 11
1189.778550077043
 21
131.613538442364
 31
0.0
  0
LINE
  5
7CCC
330
7CC7
100
AcDbEntity
  8
标注
370
    -2
100
AcDbLine
 10
1158.430582577037
 20
131.933538442364
 30
0.0
 11
1172.853730719946
 21
131.933538442364
 31
0.0
  0
LINE
  5
7CCD
330
7CC7
100
AcDbEntity
  8
标注
370
    -2
100
AcDbLine
 10
1189.128550077043
 20
131.933538442364
 30
0.0
 11
1174.705401934134
 21
131.933538442364
 31
0.0
  0
SOLID
  5
7CCE
330
7CC7
100
AcDbEntity
  8
标注
100
AcDbTrace
 10
1158.430582577037
 20
132.0418717756973
 30
0.0
 11
1158.430582577037
 21
131.8252051090307
 31
0.0
 12
1157.780582577037
 22
131.933538442364
 32
0.0
 13
1157.780582577037
 23
131.933538442364
 33
0.0
  0
SOLID
  5
7CCF
330
7CC7
100
AcDbEntity
  8
标注
100
AcDbTrace
 10
1189.128550077043
 20
132.0418717756973
 30
0.0
 11
1189.128550077043
 21
131.8252051090307
 31
0.0
 12
1189.778550077043
 22
131.933538442364
 32
0.0
 13
1189.778550077043
 23
131.933538442364
 33
0.0
  0
MTEXT
  5
7CD0
330
7CC7
100
AcDbEntity
  8
标注
100
AcDbMText
 10
1173.77956632704
 20
131.933538442364
 30
0.0
 40
0.65
 41
0.0
 71
     5
 72
     1
  1
\A1;32"
 73
     1
 44
1.0
  0
POINT
  5
7CD1
330
7CC7
100
AcDbEntity
  8
DEFPOINTS
 62
     0
100
AcDbPoint
 10
1157.780582577037
 20
137.0068236996693
 30
0.0
  0
POINT
  5
7CD2
330
7CC7
100
AcDbEntity
  8
DEFPOINTS
 62
     0
100
AcDbPoint
 10
1189.778550077043
 20
137.0068236996693
 30
0.0
  0
POINT
  5
7CD3
330
7CC7
100
AcDbEntity
  8
DEFPOINTS
 62
     0
100
AcDbPoint
 10
1189.778550077043
 20
131.933538442364
 30
0.0
  0
ENDBLK
  5
7CC9
330
7CC7
100
AcDbEntity
  8
0
100
AcDbBlockEnd
  0
BLOCK
  5
7CD6
330
7CD5
100
AcDbEntity
  8
0
100
AcDbBlockBegin
  2
*D43
 70
     1
 10
0.0
 20
0.0
 30
0.0
  3
*D43
  1

  0
LINE
  5
7CD8
330
7CD5
100
AcDbEntity
  8
标注
370
    -2
100
AcDbLine
 10
1189.265560737038
 20
137.1585057972214
 30
0.0
 11
1191.871826955997
 21
137.1585057972214
 31
0.0
  0
LINE
  5
7CD9
330
7CD5
100
AcDbEntity
  8
标注
370
    -2
100
AcDbLine
 10
1189.265560737038
 20
153.1583163172202
 30
0.0
 11
1191.871826955997
 21
153.1583163172202
 31
0.0
  0
LINE
  5
7CDA
330
7CD5
100
AcDbEntity
  8
标注
370
    -2
100
AcDbLine
 10
1191.551826955998
 20
137.8085057972215
 30
0.0
 11
1191.551826955998
 21
144.2629472100175
 31
0.0
  0
LINE
  5
7CDB
330
7CD5
100
AcDbEntity
  8
标注
370
    -2
100
AcDbLine
 10
1191.551826955998
 20
152.5083163172202
 30
0.0
 11
1191.551826955998
 21
146.0538749044241
 31
0.0
  0
SOLID
  5
7CDC
330
7CD5
100
AcDbEntity
  8
标注
100
AcDbTrace
 10
1191.443493622664
 20
137.8085057972215
 30
0.0
 11
1191.660160289331
 21
137.8085057972215
 31
0.0
 12
1191.551826955998
 22
137.1585057972214
 32
0.0
 13
1191.551826955998
 23
137.1585057972214
 33
0.0
  0
SOLID
  5
7CDD
330
7CD5
100
AcDbEntity
  8
标注
100
AcDbTrace
 10
1191.443493622664
 20
152.5083163172202
 30
0.0
 11
1191.660160289331
 21
152.5083163172202
 31
0.0
 12
1191.551826955998
 22
153.1583163172202
 32
0.0
 13
1191.551826955998
 23
153.1583163172202
 33
0.0
  0
MTEXT
  5
7CDE
330
7CD5
100
AcDbEntity
  8
标注
100
AcDbMText
 10
1191.551826955998
 20
145.158411057221
 30
0.0
 40
0.65
 41
0.0
 71
     5
 72
     1
  1
\A1;16"
 11
0.0000000000000001
 21
1.0
 31
0.0
 73
     1
 44
1.0
  0
POINT
  5
7CDF
330
7CD5
100
AcDbEntity
  8
DEFPOINTS
 62
     0
100
AcDbPoint
 10
1188.385560737038
 20
137.1585057972214
 30
0.0
  0
POINT
  5
7CE0
330
7CD5
100
AcDbEntity
  8
DEFPOINTS
 62
     0
100
AcDbPoint
 10
1188.385560737038
 20
153.1583163172202
 30
0.0
  0
POINT
  5
7CE1
330
7CD5
100
AcDbEntity
  8
DEFPOINTS
 62
     0
100
AcDbPoint
 10
1191.551826955998
 20
153.1583163172202
 30
0.0
  0
ENDBLK
  5
7CD7
330
7CD5
100
AcDbEntity
  8
0
100
AcDbBlockEnd
  0
BLOCK
  5
7CE4
330
7CE3
100
AcDbEntity
  8
0
100
AcDbBlockBegin
  2
*D44
 70
     1
 10
0.0
 20
0.0
 30
0.0
  3
*D44
  1

  0
LINE
  5
7CE6
330
7CE3
100
AcDbEntity
  8
标注
370
    -2
100
AcDbLine
 10
1189.659260737038
 20
136.1584290572163
 30
0.0
 11
1193.783540359578
 21
136.1584290572163
 31
0.0
  0
LINE
  5
7CE7
330
7CE3
100
AcDbEntity
  8
标注
370
    -2
100
AcDbLine
 10
1189.659260737038
 20
154.1583930572186
 30
0.0
 11
1193.783540359578
 21
154.1583930572186
 31
0.0
  0
LINE
  5
7CE8
330
7CE3
100
AcDbEntity
  8
标注
370
    -2
100
AcDbLine
 10
1193.463540359579
 20
136.8084290572163
 30
0.0
 11
1193.463540359579
 21
144.2629472100142
 31
0.0
  0
LINE
  5
7CE9
330
7CE3
100
AcDbEntity
  8
标注
370
    -2
100
AcDbLine
 10
1193.463540359579
 20
153.5083930572186
 30
0.0
 11
1193.463540359579
 21
146.0538749044207
 31
0.0
  0
SOLID
  5
7CEA
330
7CE3
100
AcDbEntity
  8
标注
100
AcDbTrace
 10
1193.355207026245
 20
136.8084290572163
 30
0.0
 11
1193.571873692912
 21
136.8084290572163
 31
0.0
 12
1193.463540359579
 22
136.1584290572163
 32
0.0
 13
1193.463540359579
 23
136.1584290572163
 33
0.0
  0
SOLID
  5
7CEB
330
7CE3
100
AcDbEntity
  8
标注
100
AcDbTrace
 10
1193.355207026245
 20
153.5083930572186
 30
0.0
 11
1193.571873692912
 21
153.5083930572186
 31
0.0
 12
1193.463540359579
 22
154.1583930572186
 32
0.0
 13
1193.463540359579
 23
154.1583930572186
 33
0.0
  0
MTEXT
  5
7CEC
330
7CE3
100
AcDbEntity
  8
标注
100
AcDbMText
 10
1193.463540359579
 20
145.1584110572176
 30
0.0
 40
0.65
 41
0.0
 71
     5
 72
     1
  1
\A1;18"
 11
0.0000000000000001
 21
1.0
 31
0.0
 73
     1
 44
1.0
  0
POINT
  5
7CED
330
7CE3
100
AcDbEntity
  8
DEFPOINTS
 62
     0
100
AcDbPoint
 10
1188.779260737038
 20
136.1584290572163
 30
0.0
  0
POINT
  5
7CEE
330
7CE3
100
AcDbEntity
  8
DEFPOINTS
 62
     0
100
AcDbPoint
 10
1188.779260737038
 20
154.1583930572186
 30
0.0
  0
POINT
  5
7CEF
330
7CE3
100
AcDbEntity
  8
DEFPOINTS
 62
     0
100
AcDbPoint
 10
1193.463540359579
 20
154.1583930572186
 30
0.0
  0
ENDBLK
  5
7CE5
330
7CE3
100
AcDbEntity
  8
0
100
AcDbBlockEnd
  0
BLOCK
  5
7CF2
330
7CF1
100
AcDbEntity
  8
0
100
AcDbBlockBegin
  2
*D45
 70
     1
 10
0.0
 20
0.0
 30
0.0
  3
*D45
  1

  0
LINE
  5
7CF4
330
7CF1
100
AcDbEntity
  8
标注
370
    -2
100
AcDbLine
 10
1190.658550077043
 20
178.3260017809824
 30
0.0
 11
1192.665989401725
 21
178.3260017809824
 31
0.0
  0
LINE
  5
7CF5
330
7CF1
100
AcDbEntity
  8
标注
370
    -2
100
AcDbLine
 10
1190.658550077043
 20
168.3260017809824
 30
0.0
 11
1192.665989401725
 21
168.3260017809824
 31
0.0
  0
LINE
  5
7CF6
330
7CF1
100
AcDbEntity
  8
标注
370
    -2
100
AcDbLine
 10
1192.345989401725
 20
177.6760017809824
 30
0.0
 11
1192.345989401725
 21
174.2214656281857
 31
0.0
  0
LINE
  5
7CF7
330
7CF1
100
AcDbEntity
  8
标注
370
    -2
100
AcDbLine
 10
1192.345989401725
 20
168.9760017809824
 30
0.0
 11
1192.345989401725
 21
172.4305379337791
 31
0.0
  0
SOLID
  5
7CF8
330
7CF1
100
AcDbEntity
  8
标注
100
AcDbTrace
 10
1192.237656068392
 20
177.6760017809824
 30
0.0
 11
1192.454322735058
 21
177.6760017809824
 31
0.0
 12
1192.345989401725
 22
178.3260017809824
 32
0.0
 13
1192.345989401725
 23
178.3260017809824
 33
0.0
  0
SOLID
  5
7CF9
330
7CF1
100
AcDbEntity
  8
标注
100
AcDbTrace
 10
1192.237656068392
 20
168.9760017809824
 30
0.0
 11
1192.454322735058
 21
168.9760017809824
 31
0.0
 12
1192.345989401725
 22
168.3260017809824
 32
0.0
 13
1192.345989401725
 23
168.3260017809824
 33
0.0
  0
MTEXT
  5
7CFA
330
7CF1
100
AcDbEntity
  8
标注
100
AcDbMText
 10
1192.345989401725
 20
173.3260017809826
 30
0.0
 40
0.65
 41
0.0
 71
     5
 72
     1
  1
\A1;10"
 11
0.0000000000000001
 21
1.0
 31
0.0
 73
     1
 44
1.0
  0
POINT
  5
7CFB
330
7CF1
100
AcDbEntity
  8
DEFPOINTS
 62
     0
100
AcDbPoint
 10
1189.778550077043
 20
178.3260017809824
 30
0.0
  0
POINT
  5
7CFC
330
7CF1
100
AcDbEntity
  8
DEFPOINTS
 62
     0
100
AcDbPoint
 10
1189.778550077043
 20
168.3260017809824
 30
0.0
  0
POINT
  5
7CFD
330
7CF1
100
AcDbEntity
  8
DEFPOINTS
 62
     0
100
AcDbPoint
 10
1192.345989401725
 20
168.3260017809824
 30
0.0
  0
ENDBLK
  5
7CF3
330
7CF1
100
AcDbEntity
  8
0
100
AcDbBlockEnd
  0
BLOCK
  5
7D00
330
7CFF
100
AcDbEntity
  8
0
100
AcDbBlockBegin
  2
*D46
 70
     1
 10
0.0
 20
0.0
 30
0.0
  3
*D46
  1

  0
LINE
  5
7D08
330
7CFF
100
AcDbEntity
  8
标注
370
    -2
100
AcDbLine
 10
1158.439654782125
 20
153.5066913330212
 30
0.0
 11
1157.982582694652
 21
153.9688440208344
 31
0.0
  0
MTEXT
  5
7D09
330
7CFF
100
AcDbEntity
  8
标注
100
AcDbMText
 10
1157.970201222599
 20
154.9044817703707
 30
0.0
 40
0.65
 41
0.0
 71
     5
 72
     1
  1
\A1;4-R3/8"
 11
0.703187826881778
 21
-0.7110041350971758
 31
0.0
 73
     1
 44
1.0
  0
LINE
  5
7D0A
330
7CFF
100
AcDbEntity
  8
标注
370
    -2
100
AcDbLine
 10
1159.173571917042
 20
152.7646163172202
 30
0.0
 11
1158.896726869599
 21
153.0445386452081
 31
0.0
  0
SOLID
  5
7D0B
330
7CFF
100
AcDbEntity
  8
标注
100
AcDbTrace
 10
1158.516680230094
 20
153.5828700142668
 30
0.0
 11
1158.362629334156
 21
153.4305126517756
 31
0.0
 12
1158.896726869599
 22
153.0445386452081
 32
0.0
 13
1158.896726869599
 23
153.0445386452081
 33
0.0
  0
POINT
  5
7D0C
330
7CFF
100
AcDbEntity
  8
DEFPOINTS
 62
     0
100
AcDbPoint
 10
1158.896726869599
 20
153.0445386452081
 30
0.0
  0
POINT
  5
7D0D
330
7CFF
100
AcDbEntity
  8
DEFPOINTS
 62
     0
100
AcDbPoint
 10
1159.173571917042
 20
152.7646163172202
 30
0.0
  0
ENDBLK
  5
7D01
330
7CFF
100
AcDbEntity
  8
0
100
AcDbBlockEnd
  0
BLOCK
  5
7D10
330
7D0F
100
AcDbEntity
  8
0
100
AcDbBlockBegin
  2
*D47
 70
     1
 10
0.0
 20
0.0
 30
0.0
  3
*D47
  1

  0
LINE
  5
7D12
330
7D0F
100
AcDbEntity
  8
标注
370
    -2
100
AcDbLine
 10
1158.306490727208
 20
168.1941222358644
 30
0.0
 11
1157.763543871414
 21
167.836758678989
 31
0.0
  0
MTEXT
  5
7D13
330
7D0F
100
AcDbEntity
  8
标注
100
AcDbMText
 10
1159.844581208625
 20
169.7808916533022
 30
0.0
 40
0.65
 41
0.0
 71
     5
 72
     1
  1
\A1;R3/8"
 11
0.8353028550686579
 21
0.5497900875008104
 31
0.0
 73
     1
 44
1.0
  0
LINE
  5
7D14
330
7D0F
100
AcDbEntity
  8
标注
370
    -2
100
AcDbLine
 10
1159.178296317044
 20
168.7679381501892
 30
0.0
 11
1158.849437583003
 21
168.5514857927399
 31
0.0
  0
SOLID
  5
7D15
330
7D0F
100
AcDbEntity
  8
标注
100
AcDbTrace
 10
1158.246930134396
 20
168.2846133784969
 30
0.0
 11
1158.366051320021
 21
168.1036310932319
 31
0.0
 12
1158.849437583003
 22
168.5514857927399
 32
0.0
 13
1158.849437583003
 23
168.5514857927399
 33
0.0
  0
POINT
  5
7D16
330
7D0F
100
AcDbEntity
  8
DEFPOINTS
 62
     0
100
AcDbPoint
 10
1158.849437583003
 20
168.5514857927399
 30
0.0
  0
POINT
  5
7D17
330
7D0F
100
AcDbEntity
  8
DEFPOINTS
 62
     0
100
AcDbPoint
 10
1159.178296317044
 20
168.7679381501892
 30
0.0
  0
ENDBLK
  5
7D11
330
7D0F
100
AcDbEntity
  8
0
100
AcDbBlockEnd
  0
BLOCK
  5
7E39
330
7E38
100
AcDbEntity
  8
0
100
AcDbBlockBegin
  2
*D48
 70
     1
 10
0.0
 20
0.0
 30
0.0
  3
*D48
  1

  0
LINE
  5
7EB9
330
7E38
100
AcDbEntity
  8
标注
370
    -2
100
AcDbLine
 10
1170.312290684851
 20
137.0178489145513
 30
0.0
 11
1170.312290684851
 21
133.8214489846745
 31
0.0
  0
LINE
  5
7EBA
330
7E38
100
AcDbEntity
  8
标注
370
    -2
100
AcDbLine
 10
1204.312222684849
 20
137.0178489145513
 30
0.0
 11
1204.312222684849
 21
133.8214489846745
 31
0.0
  0
LINE
  5
7EBB
330
7E38
100
AcDbEntity
  8
标注
370
    -2
100
AcDbLine
 10
1170.962290684851
 20
134.1414489846745
 30
0.0
 11
1186.386421077755
 21
134.1414489846745
 31
0.0
  0
LINE
  5
7EBC
330
7E38
100
AcDbEntity
  8
标注
370
    -2
100
AcDbLine
 10
1203.662222684849
 20
134.1414489846745
 30
0.0
 11
1188.238092291943
 21
134.1414489846745
 31
0.0
  0
SOLID
  5
7EBD
330
7E38
100
AcDbEntity
  8
标注
100
AcDbTrace
 10
1170.962290684851
 20
134.2497823180078
 30
0.0
 11
1170.962290684851
 21
134.0331156513412
 31
0.0
 12
1170.312290684851
 22
134.1414489846745
 32
0.0
 13
1170.312290684851
 23
134.1414489846745
 33
0.0
  0
SOLID
  5
7EBE
330
7E38
100
AcDbEntity
  8
标注
100
AcDbTrace
 10
1203.662222684849
 20
134.2497823180078
 30
0.0
 11
1203.662222684849
 21
134.0331156513412
 31
0.0
 12
1204.312222684849
 22
134.1414489846745
 32
0.0
 13
1204.312222684849
 23
134.1414489846745
 33
0.0
  0
MTEXT
  5
7EBF
330
7E38
100
AcDbEntity
  8
标注
100
AcDbMText
 10
1187.312256684849
 20
134.1414489846745
 30
0.0
 40
0.65
 41
0.0
 71
     5
 72
     1
  1
\A1;34"
 73
     1
 44
1.0
  0
POINT
  5
7EC0
330
7E38
100
AcDbEntity
  8
DEFPOINTS
 62
     0
100
AcDbPoint
 10
1170.312290684851
 20
137.8978489145513
 30
0.0
  0
POINT
  5
7EC1
330
7E38
100
AcDbEntity
  8
DEFPOINTS
 62
     0
100
AcDbPoint
 10
1204.312222684849
 20
137.8978489145513
 30
0.0
  0
POINT
  5
7EC2
330
7E38
100
AcDbEntity
  8
DEFPOINTS
 62
     0
100
AcDbPoint
 10
1204.312222684849
 20
134.1414489846745
 30
0.0
  0
ENDBLK
  5
7E3A
330
7E38
100
AcDbEntity
  8
0
100
AcDbBlockEnd
  0
BLOCK
  5
7E47
330
7E46
100
AcDbEntity
  8
0
100
AcDbBlockBegin
  2
*D49
 70
     1
 10
0.0
 20
0.0
 30
0.0
  3
*D49
  1

  0
LINE
  5
7EC3
330
7E46
100
AcDbEntity
  8
标注
370
    -2
100
AcDbLine
 10
1169.312292684851
 20
136.4717250904544
 30
0.0
 11
1169.312292684851
 21
132.1932890118998
 31
0.0
  0
LINE
  5
7EC4
330
7E46
100
AcDbEntity
  8
标注
370
    -2
100
AcDbLine
 10
1205.312220684848
 20
136.4717250904544
 30
0.0
 11
1205.312220684848
 21
132.1932890118998
 31
0.0
  0
LINE
  5
7EC5
330
7E46
100
AcDbEntity
  8
标注
370
    -2
100
AcDbLine
 10
1169.962292684851
 20
132.5132890118998
 30
0.0
 11
1186.386421077755
 21
132.5132890118998
 31
0.0
  0
LINE
  5
7EC6
330
7E46
100
AcDbEntity
  8
标注
370
    -2
100
AcDbLine
 10
1204.662220684848
 20
132.5132890118998
 30
0.0
 11
1188.238092291943
 21
132.5132890118998
 31
0.0
  0
SOLID
  5
7EC7
330
7E46
100
AcDbEntity
  8
标注
100
AcDbTrace
 10
1169.962292684851
 20
132.6216223452331
 30
0.0
 11
1169.962292684851
 21
132.4049556785665
 31
0.0
 12
1169.312292684851
 22
132.5132890118998
 32
0.0
 13
1169.312292684851
 23
132.5132890118998
 33
0.0
  0
SOLID
  5
7EC8
330
7E46
100
AcDbEntity
  8
标注
100
AcDbTrace
 10
1204.662220684848
 20
132.6216223452331
 30
0.0
 11
1204.662220684848
 21
132.4049556785665
 31
0.0
 12
1205.312220684848
 22
132.5132890118998
 32
0.0
 13
1205.312220684848
 23
132.5132890118998
 33
0.0
  0
MTEXT
  5
7EC9
330
7E46
100
AcDbEntity
  8
标注
100
AcDbMText
 10
1187.312256684849
 20
132.5132890118998
 30
0.0
 40
0.65
 41
0.0
 71
     5
 72
     1
  1
\A1;36"
 73
     1
 44
1.0
  0
POINT
  5
7ECA
330
7E46
100
AcDbEntity
  8
DEFPOINTS
 62
     0
100
AcDbPoint
 10
1169.312292684851
 20
137.3517250904544
 30
0.0
  0
POINT
  5
7ECB
330
7E46
100
AcDbEntity
  8
DEFPOINTS
 62
     0
100
AcDbPoint
 10
1205.312220684848
 20
137.3517250904544
 30
0.0
  0
POINT
  5
7ECC
330
7E46
100
AcDbEntity
  8
DEFPOINTS
 62
     0
100
AcDbPoint
 10
1205.312220684848
 20
132.5132890118998
 30
0.0
  0
ENDBLK
  5
7E48
330
7E46
100
AcDbEntity
  8
0
100
AcDbBlockEnd
  0
BLOCK
  5
7E55
330
7E54
100
AcDbEntity
  8
0
100
AcDbBlockBegin
  2
*D50
 70
     1
 10
0.0
 20
0.0
 30
0.0
  3
*D50
  1

  0
LINE
  5
7ECD
330
7E54
100
AcDbEntity
  8
标注
370
    -2
100
AcDbLine
 10
1204.798522684848
 20
137.5041489145508
 30
0.0
 11
1207.451875171078
 21
137.5041489145508
 31
0.0
  0
LINE
  5
7ECE
330
7E54
100
AcDbEntity
  8
标注
370
    -2
100
AcDbLine
 10
1204.798522684848
 20
154.5041149145533
 30
0.0
 11
1207.451875171078
 21
154.5041149145533
 31
0.0
  0
LINE
  5
7ECF
330
7E54
100
AcDbEntity
  8
标注
370
    -2
100
AcDbLine
 10
1207.131875171078
 20
138.1541489145508
 30
0.0
 11
1207.131875171078
 21
145.1086680673488
 31
0.0
  0
LINE
  5
7ED0
330
7E54
100
AcDbEntity
  8
标注
370
    -2
100
AcDbLine
 10
1207.131875171078
 20
153.8541149145533
 30
0.0
 11
1207.131875171078
 21
146.8995957617553
 31
0.0
  0
SOLID
  5
7ED1
330
7E54
100
AcDbEntity
  8
标注
100
AcDbTrace
 10
1207.023541837745
 20
138.1541489145508
 30
0.0
 11
1207.240208504411
 21
138.1541489145508
 31
0.0
 12
1207.131875171078
 22
137.5041489145508
 32
0.0
 13
1207.131875171078
 23
137.5041489145508
 33
0.0
  0
SOLID
  5
7ED2
330
7E54
100
AcDbEntity
  8
标注
100
AcDbTrace
 10
1207.023541837745
 20
153.8541149145533
 30
0.0
 11
1207.240208504411
 21
153.8541149145533
 31
0.0
 12
1207.131875171078
 22
154.5041149145533
 32
0.0
 13
1207.131875171078
 23
154.5041149145533
 33
0.0
  0
MTEXT
  5
7ED3
330
7E54
100
AcDbEntity
  8
标注
100
AcDbMText
 10
1207.131875171078
 20
146.0041319145522
 30
0.0
 40
0.65
 41
0.0
 71
     5
 72
     1
  1
\A1;17"
 11
0.0000000000000001
 21
1.0
 31
0.0
 73
     1
 44
1.0
  0
POINT
  5
7ED4
330
7E54
100
AcDbEntity
  8
DEFPOINTS
 62
     0
100
AcDbPoint
 10
1203.918522684849
 20
137.5041489145508
 30
0.0
  0
POINT
  5
7ED5
330
7E54
100
AcDbEntity
  8
DEFPOINTS
 62
     0
100
AcDbPoint
 10
1203.918522684849
 20
154.5041149145533
 30
0.0
  0
POINT
  5
7ED6
330
7E54
100
AcDbEntity
  8
DEFPOINTS
 62
     0
100
AcDbPoint
 10
1207.131875171078
 20
154.5041149145533
 30
0.0
  0
ENDBLK
  5
7E56
330
7E54
100
AcDbEntity
  8
0
100
AcDbBlockEnd
  0
BLOCK
  5
7E63
330
7E62
100
AcDbEntity
  8
0
100
AcDbBlockBegin
  2
*D51
 70
     1
 10
0.0
 20
0.0
 30
0.0
  3
*D51
  1

  0
LINE
  5
7ED7
330
7E62
100
AcDbEntity
  8
标注
370
    -2
100
AcDbLine
 10
1205.192222684849
 20
136.5041509145515
 30
0.0
 11
1209.058744541955
 21
136.5041509145515
 31
0.0
  0
LINE
  5
7ED8
330
7E62
100
AcDbEntity
  8
标注
370
    -2
100
AcDbLine
 10
1205.192222684849
 20
155.5041129145531
 30
0.0
 11
1209.058744541955
 21
155.5041129145531
 31
0.0
  0
LINE
  5
7ED9
330
7E62
100
AcDbEntity
  8
标注
370
    -2
100
AcDbLine
 10
1208.738744541955
 20
137.1541509145514
 30
0.0
 11
1208.738744541955
 21
145.108668067349
 31
0.0
  0
LINE
  5
7EDA
330
7E62
100
AcDbEntity
  8
标注
370
    -2
100
AcDbLine
 10
1208.738744541955
 20
154.8541129145531
 30
0.0
 11
1208.738744541955
 21
146.8995957617556
 31
0.0
  0
SOLID
  5
7EDB
330
7E62
100
AcDbEntity
  8
标注
100
AcDbTrace
 10
1208.630411208621
 20
137.1541509145514
 30
0.0
 11
1208.847077875288
 21
137.1541509145514
 31
0.0
 12
1208.738744541955
 22
136.5041509145515
 32
0.0
 13
1208.738744541955
 23
136.5041509145515
 33
0.0
  0
SOLID
  5
7EDC
330
7E62
100
AcDbEntity
  8
标注
100
AcDbTrace
 10
1208.630411208621
 20
154.8541129145531
 30
0.0
 11
1208.847077875288
 21
154.8541129145531
 31
0.0
 12
1208.738744541955
 22
155.5041129145531
 32
0.0
 13
1208.738744541955
 23
155.5041129145531
 33
0.0
  0
MTEXT
  5
7EDD
330
7E62
100
AcDbEntity
  8
标注
100
AcDbMText
 10
1208.738744541955
 20
146.0041319145525
 30
0.0
 40
0.65
 41
0.0
 71
     5
 72
     1
  1
\A1;19"
 11
0.0000000000000001
 21
1.0
 31
0.0
 73
     1
 44
1.0
  0
POINT
  5
7EDE
330
7E62
100
AcDbEntity
  8
DEFPOINTS
 62
     0
100
AcDbPoint
 10
1204.312222684849
 20
136.5041509145515
 30
0.0
  0
POINT
  5
7EDF
330
7E62
100
AcDbEntity
  8
DEFPOINTS
 62
     0
100
AcDbPoint
 10
1204.312222684849
 20
155.5041129145531
 30
0.0
  0
POINT
  5
7EE0
330
7E62
100
AcDbEntity
  8
DEFPOINTS
 62
     0
100
AcDbPoint
 10
1208.738744541955
 20
155.5041129145531
 30
0.0
  0
ENDBLK
  5
7E64
330
7E62
100
AcDbEntity
  8
0
100
AcDbBlockEnd
  0
BLOCK
  5
7E71
330
7E70
100
AcDbEntity
  8
0
100
AcDbBlockBegin
  2
*D52
 70
     1
 10
0.0
 20
0.0
 30
0.0
  3
*D52
  1

  0
LINE
  5
7EE1
330
7E70
100
AcDbEntity
  8
标注
370
    -2
100
AcDbLine
 10
1170.233550684853
 20
103.1400952535663
 30
0.0
 11
1170.233550684853
 21
101.028849140637
 31
0.0
  0
LINE
  5
7EE2
330
7E70
100
AcDbEntity
  8
标注
370
    -2
100
AcDbLine
 10
1204.390962684853
 20
103.1400952535663
 30
0.0
 11
1204.390962684853
 21
101.028849140637
 31
0.0
  0
LINE
  5
7EE3
330
7E70
100
AcDbEntity
  8
标注
370
    -2
100
AcDbLine
 10
1170.883550684853
 20
101.3488491406369
 30
0.0
 11
1185.62912230559
 21
101.3488491406369
 31
0.0
  0
LINE
  5
7EE4
330
7E70
100
AcDbEntity
  8
标注
370
    -2
100
AcDbLine
 10
1203.740962684853
 20
101.3488491406369
 30
0.0
 11
1188.995391064116
 21
101.3488491406369
 31
0.0
  0
SOLID
  5
7EE5
330
7E70
100
AcDbEntity
  8
标注
100
AcDbTrace
 10
1170.883550684853
 20
101.4571824739703
 30
0.0
 11
1170.883550684853
 21
101.2405158073036
 31
0.0
 12
1170.233550684853
 22
101.3488491406369
 32
0.0
 13
1170.233550684853
 23
101.3488491406369
 33
0.0
  0
SOLID
  5
7EE6
330
7E70
100
AcDbEntity
  8
标注
100
AcDbTrace
 10
1203.740962684853
 20
101.4571824739703
 30
0.0
 11
1203.740962684853
 21
101.2405158073036
 31
0.0
 12
1204.390962684853
 22
101.3488491406369
 32
0.0
 13
1204.390962684853
 23
101.3488491406369
 33
0.0
  0
MTEXT
  5
7EE7
330
7E70
100
AcDbEntity
  8
标注
100
AcDbMText
 10
1187.312256684853
 20
101.3488491406369
 30
0.0
 40
0.65
 41
0.0
 71
     5
 72
     1
  1
\A1;34 1/8"
 73
     1
 44
1.0
  0
POINT
  5
7EE8
330
7E70
100
AcDbEntity
  8
DEFPOINTS
 62
     0
100
AcDbPoint
 10
1170.233550684853
 20
104.0200952535663
 30
0.0
  0
POINT
  5
7EE9
330
7E70
100
AcDbEntity
  8
DEFPOINTS
 62
     0
100
AcDbPoint
 10
1204.390962684853
 20
104.0200952535663
 30
0.0
  0
POINT
  5
7EEA
330
7E70
100
AcDbEntity
  8
DEFPOINTS
 62
     0
100
AcDbPoint
 10
1204.390962684853
 20
101.3488491406369
 30
0.0
  0
ENDBLK
  5
7E72
330
7E70
100
AcDbEntity
  8
0
100
AcDbBlockEnd
  0
BLOCK
  5
7E7F
330
7E7E
100
AcDbEntity
  8
0
100
AcDbBlockBegin
  2
*D53
 70
     1
 10
0.0
 20
0.0
 30
0.0
  3
*D53
  1

  0
LINE
  5
7EEB
330
7E7E
100
AcDbEntity
  8
标注
370
    -2
100
AcDbLine
 10
1204.798522684848
 20
103.5476552535685
 30
0.0
 11
1206.726900516661
 21
103.5476552535685
 31
0.0
  0
LINE
  5
7EEC
330
7E7E
100
AcDbEntity
  8
标注
370
    -2
100
AcDbLine
 10
1204.798522684848
 20
120.705101253566
 30
0.0
 11
1206.726900516661
 21
120.705101253566
 31
0.0
  0
LINE
  5
7EED
330
7E7E
100
AcDbEntity
  8
标注
370
    -2
100
AcDbLine
 10
1206.406900516661
 20
104.1976552535686
 30
0.0
 11
1206.406900516661
 21
110.4736156341948
 31
0.0
  0
LINE
  5
7EEE
330
7E7E
100
AcDbEntity
  8
标注
370
    -2
100
AcDbLine
 10
1206.406900516661
 20
120.055101253566
 30
0.0
 11
1206.406900516661
 21
113.7791408729397
 31
0.0
  0
SOLID
  5
7EEF
330
7E7E
100
AcDbEntity
  8
标注
100
AcDbTrace
 10
1206.298567183328
 20
104.1976552535686
 30
0.0
 11
1206.515233849994
 21
104.1976552535686
 31
0.0
 12
1206.406900516661
 22
103.5476552535685
 32
0.0
 13
1206.406900516661
 23
103.5476552535685
 33
0.0
  0
SOLID
  5
7EF0
330
7E7E
100
AcDbEntity
  8
标注
100
AcDbTrace
 10
1206.298567183328
 20
120.055101253566
 30
0.0
 11
1206.515233849994
 21
120.055101253566
 31
0.0
 12
1206.406900516661
 22
120.705101253566
 32
0.0
 13
1206.406900516661
 23
120.705101253566
 33
0.0
  0
MTEXT
  5
7EF1
330
7E7E
100
AcDbEntity
  8
标注
100
AcDbMText
 10
1206.406900516661
 20
112.1263782535675
 30
0.0
 40
0.65
 41
0.0
 71
     5
 72
     1
  1
\A1;17 1/8"
 11
0.0000000000000001
 21
1.0
 31
0.0
 73
     1
 44
1.0
  0
POINT
  5
7EF2
330
7E7E
100
AcDbEntity
  8
DEFPOINTS
 62
     0
100
AcDbPoint
 10
1203.918522684849
 20
103.5476552535685
 30
0.0
  0
POINT
  5
7EF3
330
7E7E
100
AcDbEntity
  8
DEFPOINTS
 62
     0
100
AcDbPoint
 10
1203.918522684849
 20
120.705101253566
 30
0.0
  0
POINT
  5
7EF4
330
7E7E
100
AcDbEntity
  8
DEFPOINTS
 62
     0
100
AcDbPoint
 10
1206.406900516661
 20
120.705101253566
 30
0.0
  0
ENDBLK
  5
7E80
330
7E7E
100
AcDbEntity
  8
0
100
AcDbBlockEnd
  0
BLOCK
  5
7E8D
330
7E8C
100
AcDbEntity
  8
0
100
AcDbBlockBegin
  2
*D54
 70
     1
 10
0.0
 20
0.0
 30
0.0
  3
*D54
  1

  0
LINE
  5
7EF5
330
7E8C
100
AcDbEntity
  8
标注
370
    -2
100
AcDbLine
 10
1169.880024289674
 20
103.2600616571777
 30
0.0
 11
1169.401710832504
 21
102.8199295898491
 31
0.0
  0
MTEXT
  5
7EF6
330
7E8C
100
AcDbEntity
  8
标注
100
AcDbMText
 10
1171.263278010352
 20
105.0533086978499
 30
0.0
 40
0.65
 41
0.0
 71
     5
 72
     1
  1
\A1;4-R1/2"
 11
0.7358668571831517
 21
0.6771262574286952
 31
0.0
 73
     1
 44
1.0
  0
LINE
  5
7EF7
330
7E8C
100
AcDbEntity
  8
标注
370
    -2
100
AcDbLine
 10
1170.705990684851
 20
104.0200952535662
 30
0.0
 11
1170.358337746843
 21
103.7001937245064
 31
0.0
  0
SOLID
  5
7EF8
330
7E8C
100
AcDbEntity
  8
标注
100
AcDbTrace
 10
1169.806668945119
 20
103.3397805667059
 30
0.0
 11
1169.953379634228
 21
103.1803427476495
 31
0.0
 12
1170.358337746843
 22
103.7001937245064
 32
0.0
 13
1170.358337746843
 23
103.7001937245064
 33
0.0
  0
POINT
  5
7EF9
330
7E8C
100
AcDbEntity
  8
DEFPOINTS
 62
     0
100
AcDbPoint
 10
1170.358337746843
 20
103.7001937245064
 30
0.0
  0
POINT
  5
7EFA
330
7E8C
100
AcDbEntity
  8
DEFPOINTS
 62
     0
100
AcDbPoint
 10
1170.705990684851
 20
104.0200952535662
 30
0.0
  0
ENDBLK
  5
7E8E
330
7E8C
100
AcDbEntity
  8
0
100
AcDbBlockEnd
  0
BLOCK
  5
7E9D
330
7E9C
100
AcDbEntity
  8
0
100
AcDbBlockBegin
  2
*D55
 70
     1
 10
0.0
 20
0.0
 30
0.0
  3
*D55
  1

  0
LINE
  5
7EFB
330
7E9C
100
AcDbEntity
  8
标注
370
    -2
100
AcDbLine
 10
1169.800822188547
 20
137.3782532224023
 30
0.0
 11
1169.237097437568
 21
137.0546571699959
 31
0.0
  0
MTEXT
  5
7EFC
330
7E9C
100
AcDbEntity
  8
标注
100
AcDbMText
 10
1171.44967419794
 20
138.9214806762392
 30
0.0
 40
0.65
 41
0.0
 71
     5
 72
     1
  1
\A1;4-R3/8"
 11
0.8672688476607525
 21
0.4978400806254861
 31
0.0
 73
     1
 44
1.0
  0
LINE
  5
7EFD
330
7E9C
100
AcDbEntity
  8
标注
370
    -2
100
AcDbLine
 10
1170.705990684851
 20
137.8978489145513
 30
0.0
 11
1170.364546939526
 21
137.701849274809
 31
0.0
  0
SOLID
  5
7EFE
330
7E9C
100
AcDbEntity
  8
标注
100
AcDbTrace
 10
1169.746889513146
 20
137.4722073475656
 30
0.0
 11
1169.854754863948
 21
137.2842990972391
 31
0.0
 12
1170.364546939526
 22
137.701849274809
 32
0.0
 13
1170.364546939526
 23
137.701849274809
 33
0.0
  0
POINT
  5
7EFF
330
7E9C
100
AcDbEntity
  8
DEFPOINTS
 62
     0
100
AcDbPoint
 10
1170.364546939526
 20
137.701849274809
 30
0.0
  0
POINT
  5
7F00
330
7E9C
100
AcDbEntity
  8
DEFPOINTS
 62
     0
100
AcDbPoint
 10
1170.705990684851
 20
137.8978489145513
 30
0.0
  0
ENDBLK
  5
7E9E
330
7E9C
100
AcDbEntity
  8
0
100
AcDbBlockEnd
  0
BLOCK
  5
7EAD
330
7EAC
100
AcDbEntity
  8
0
100
AcDbBlockBegin
  2
*D56
 70
     1
 10
0.0
 20
0.0
 30
0.0
  3
*D56
  1

  0
LINE
  5
7F01
330
7EAC
100
AcDbEntity
  8
标注
370
    -2
100
AcDbLine
 10
1206.192220684848
 20
177.8541538893471
 30
0.0
 11
1207.917505186906
 21
177.8541538893471
 31
0.0
  0
LINE
  5
7F02
330
7EAC
100
AcDbEntity
  8
标注
370
    -2
100
AcDbLine
 10
1206.192220684848
 20
167.8541538893471
 30
0.0
 11
1207.917505186906
 21
167.8541538893471
 31
0.0
  0
LINE
  5
7F03
330
7EAC
100
AcDbEntity
  8
标注
370
    -2
100
AcDbLine
 10
1207.597505186906
 20
177.2041538893471
 30
0.0
 11
1207.597505186906
 21
173.7496177365504
 31
0.0
  0
LINE
  5
7F04
330
7EAC
100
AcDbEntity
  8
标注
370
    -2
100
AcDbLine
 10
1207.597505186906
 20
168.5041538893471
 30
0.0
 11
1207.597505186906
 21
171.9586900421438
 31
0.0
  0
SOLID
  5
7F05
330
7EAC
100
AcDbEntity
  8
标注
100
AcDbTrace
 10
1207.489171853573
 20
177.2041538893471
 30
0.0
 11
1207.705838520239
 21
177.2041538893471
 31
0.0
 12
1207.597505186906
 22
177.8541538893471
 32
0.0
 13
1207.597505186906
 23
177.8541538893471
 33
0.0
  0
SOLID
  5
7F06
330
7EAC
100
AcDbEntity
  8
标注
100
AcDbTrace
 10
1207.489171853573
 20
168.5041538893471
 30
0.0
 11
1207.705838520239
 21
168.5041538893471
 31
0.0
 12
1207.597505186906
 22
167.8541538893471
 32
0.0
 13
1207.597505186906
 23
167.8541538893471
 33
0.0
  0
MTEXT
  5
7F07
330
7EAC
100
AcDbEntity
  8
标注
100
AcDbMText
 10
1207.597505186906
 20
172.8541538893473
 30
0.0
 40
0.65
 41
0.0
 71
     5
 72
     1
  1
\A1;10"
 11
0.0000000000000001
 21
1.0
 31
0.0
 73
     1
 44
1.0
  0
POINT
  5
7F08
330
7EAC
100
AcDbEntity
  8
DEFPOINTS
 62
     0
100
AcDbPoint
 10
1205.312220684848
 20
177.8541538893471
 30
0.0
  0
POINT
  5
7F09
330
7EAC
100
AcDbEntity
  8
DEFPOINTS
 62
     0
100
AcDbPoint
 10
1205.312220684848
 20
167.8541538893471
 30
0.0
  0
POINT
  5
7F0A
330
7EAC
100
AcDbEntity
  8
DEFPOINTS
 62
     0
100
AcDbPoint
 10
1207.597505186906
 20
167.8541538893471
 30
0.0
  0
ENDBLK
  5
7EAE
330
7EAC
100
AcDbEntity
  8
0
100
AcDbBlockEnd
  0
BLOCK
  5
7F48
330
7F47
100
AcDbEntity
  8
0
 48
5.0
100
AcDbBlockBegin
  2
_Oblique
 70
     0
 10
0.0
 20
0.0
 30
0.0
  3
_Oblique
  1

  0
LINE
  5
7F49
330
7F47
100
AcDbEntity
  8
0
  6
ByBlock
 62
     0
370
    -2
100
AcDbLine
 10
-0.5
 20
-0.5
 30
0.0
 11
0.5
 21
0.5
 31
0.0
  0
ENDBLK
  5
7F4A
330
7F47
100
AcDbEntity
  8
0
 48
5.0
100
AcDbBlockEnd
  0
BLOCK
  5
8009
330
8008
100
AcDbEntity
  8
0
100
AcDbBlockBegin
  2
*D58
 70
     1
 10
0.0
 20
0.0
 30
0.0
  3
*D58
  1

  0
LINE
  5
800B
330
8008
100
AcDbEntity
  8
标注
370
    -2
100
AcDbLine
 10
1230.722318897997
 20
106.1460650304292
 30
0.0
 11
1230.722318897997
 21
103.7648656788448
 31
0.0
  0
LINE
  5
800C
330
8008
100
AcDbEntity
  8
标注
370
    -2
100
AcDbLine
 10
1258.879742897989
 20
106.1460650304292
 30
0.0
 11
1258.879742897989
 21
103.7648656788448
 31
0.0
  0
LINE
  5
800D
330
8008
100
AcDbEntity
  8
标注
370
    -2
100
AcDbLine
 10
1231.372318897997
 20
104.0848656788448
 30
0.0
 11
1243.112132535101
 21
104.0848656788448
 31
0.0
  0
LINE
  5
800E
330
8008
100
AcDbEntity
  8
标注
370
    -2
100
AcDbLine
 10
1258.229742897989
 20
104.0848656788448
 30
0.0
 11
1246.489929260885
 21
104.0848656788448
 31
0.0
  0
SOLID
  5
800F
330
8008
100
AcDbEntity
  8
标注
100
AcDbTrace
 10
1231.372318897997
 20
104.1931990121781
 30
0.0
 11
1231.372318897997
 21
103.9765323455115
 31
0.0
 12
1230.722318897997
 22
104.0848656788448
 32
0.0
 13
1230.722318897997
 23
104.0848656788448
 33
0.0
  0
SOLID
  5
8010
330
8008
100
AcDbEntity
  8
标注
100
AcDbTrace
 10
1258.229742897989
 20
104.1931990121781
 30
0.0
 11
1258.229742897989
 21
103.9765323455115
 31
0.0
 12
1258.879742897989
 22
104.0848656788448
 32
0.0
 13
1258.879742897989
 23
104.0848656788448
 33
0.0
  0
MTEXT
  5
8011
330
8008
100
AcDbEntity
  8
标注
100
AcDbMText
 10
1244.801030897993
 20
104.0848656788448
 30
0.0
 40
0.65
 41
0.0
 71
     5
 72
     1
  1
\A1;28 1/8"
 73
     1
 44
1.0
  0
POINT
  5
8012
330
8008
100
AcDbEntity
  8
DEFPOINTS
 62
     0
100
AcDbPoint
 10
1230.722318897997
 20
107.0260650304292
 30
0.0
  0
POINT
  5
8013
330
8008
100
AcDbEntity
  8
DEFPOINTS
 62
     0
100
AcDbPoint
 10
1258.879742897989
 20
107.0260650304292
 30
0.0
  0
POINT
  5
8014
330
8008
100
AcDbEntity
  8
DEFPOINTS
 62
     0
100
AcDbPoint
 10
1258.879742897989
 20
104.0848656788448
 30
0.0
  0
ENDBLK
  5
800A
330
8008
100
AcDbEntity
  8
0
100
AcDbBlockEnd
  0
BLOCK
  5
8017
330
8016
100
AcDbEntity
  8
0
100
AcDbBlockBegin
  2
*D59
 70
     1
 10
0.0
 20
0.0
 30
0.0
  3
*D59
  1

  0
LINE
  5
8019
330
8016
100
AcDbEntity
  8
标注
370
    -2
100
AcDbLine
 10
1259.287302897989
 20
106.5536250304315
 30
0.0
 11
1261.617233772254
 21
106.5536250304315
 31
0.0
  0
LINE
  5
801A
330
8016
100
AcDbEntity
  8
标注
370
    -2
100
AcDbLine
 10
1259.287302897989
 20
122.7110730304296
 30
0.0
 11
1261.617233772254
 21
122.7110730304296
 31
0.0
  0
LINE
  5
801B
330
8016
100
AcDbEntity
  8
标注
370
    -2
100
AcDbLine
 10
1261.297233772254
 20
107.2036250304315
 30
0.0
 11
1261.297233772254
 21
112.9795864110581
 31
0.0
  0
LINE
  5
801C
330
8016
100
AcDbEntity
  8
标注
370
    -2
100
AcDbLine
 10
1261.297233772254
 20
122.0610730304296
 30
0.0
 11
1261.297233772254
 21
116.2851116498029
 31
0.0
  0
SOLID
  5
801D
330
8016
100
AcDbEntity
  8
标注
100
AcDbTrace
 10
1261.188900438921
 20
107.2036250304315
 30
0.0
 11
1261.405567105588
 21
107.2036250304315
 31
0.0
 12
1261.297233772254
 22
106.5536250304315
 32
0.0
 13
1261.297233772254
 23
106.5536250304315
 33
0.0
  0
SOLID
  5
801E
330
8016
100
AcDbEntity
  8
标注
100
AcDbTrace
 10
1261.188900438921
 20
122.0610730304296
 30
0.0
 11
1261.405567105588
 21
122.0610730304296
 31
0.0
 12
1261.297233772254
 22
122.7110730304296
 32
0.0
 13
1261.297233772254
 23
122.7110730304296
 33
0.0
  0
MTEXT
  5
801F
330
8016
100
AcDbEntity
  8
标注
100
AcDbMText
 10
1261.297233772254
 20
114.6323490304307
 30
0.0
 40
0.65
 41
0.0
 71
     5
 72
     1
  1
\A1;16 1/8"
 11
0.0000000000000001
 21
1.0
 31
0.0
 73
     1
 44
1.0
  0
POINT
  5
8020
330
8016
100
AcDbEntity
  8
DEFPOINTS
 62
     0
100
AcDbPoint
 10
1258.407302897989
 20
106.5536250304315
 30
0.0
  0
POINT
  5
8021
330
8016
100
AcDbEntity
  8
DEFPOINTS
 62
     0
100
AcDbPoint
 10
1258.407302897989
 20
122.7110730304296
 30
0.0
  0
POINT
  5
8022
330
8016
100
AcDbEntity
  8
DEFPOINTS
 62
     0
100
AcDbPoint
 10
1261.297233772254
 20
122.7110730304296
 30
0.0
  0
ENDBLK
  5
8018
330
8016
100
AcDbEntity
  8
0
100
AcDbBlockEnd
  0
BLOCK
  5
8025
330
8024
100
AcDbEntity
  8
0
100
AcDbBlockBegin
  2
*D60
 70
     1
 10
0.0
 20
0.0
 30
0.0
  3
*D60
  1

  0
LINE
  5
8027
330
8024
100
AcDbEntity
  8
标注
370
    -2
100
AcDbLine
 10
1230.801334487985
 20
136.9368273263648
 30
0.0
 11
1230.801334487985
 21
134.3183051679415
 31
0.0
  0
LINE
  5
8028
330
8024
100
AcDbEntity
  8
标注
370
    -2
100
AcDbLine
 10
1258.800727308013
 20
136.9368273263648
 30
0.0
 11
1258.800727308013
 21
134.3183051679415
 31
0.0
  0
LINE
  5
8029
330
8024
100
AcDbEntity
  8
标注
370
    -2
100
AcDbLine
 10
1231.451334487985
 20
134.6383051679415
 30
0.0
 11
1243.869431307276
 21
134.6383051679415
 31
0.0
  0
LINE
  5
802A
330
8024
100
AcDbEntity
  8
标注
370
    -2
100
AcDbLine
 10
1258.150727308013
 20
134.6383051679415
 30
0.0
 11
1245.732630488722
 21
134.6383051679415
 31
0.0
  0
SOLID
  5
802B
330
8024
100
AcDbEntity
  8
标注
100
AcDbTrace
 10
1231.451334487985
 20
134.7466385012749
 30
0.0
 11
1231.451334487985
 21
134.5299718346082
 31
0.0
 12
1230.801334487985
 22
134.6383051679415
 32
0.0
 13
1230.801334487985
 23
134.6383051679415
 33
0.0
  0
SOLID
  5
802C
330
8024
100
AcDbEntity
  8
标注
100
AcDbTrace
 10
1258.150727308013
 20
134.7466385012749
 30
0.0
 11
1258.150727308013
 21
134.5299718346082
 31
0.0
 12
1258.800727308013
 22
134.6383051679415
 32
0.0
 13
1258.800727308013
 23
134.6383051679415
 33
0.0
  0
MTEXT
  5
802D
330
8024
100
AcDbEntity
  8
标注
100
AcDbMText
 10
1244.801030897999
 20
134.6383051679415
 30
0.0
 40
0.65
 41
0.0
 71
     5
 72
     1
  1
\A1;28"
 73
     1
 44
1.0
  0
POINT
  5
802E
330
8024
100
AcDbEntity
  8
DEFPOINTS
 62
     0
100
AcDbPoint
 10
1230.801334487985
 20
137.8168273263647
 30
0.0
  0
POINT
  5
802F
330
8024
100
AcDbEntity
  8
DEFPOINTS
 62
     0
100
AcDbPoint
 10
1258.800727308013
 20
137.8168273263647
 30
0.0
  0
POINT
  5
8030
330
8024
100
AcDbEntity
  8
DEFPOINTS
 62
     0
100
AcDbPoint
 10
1258.800727308013
 20
134.6383051679415
 30
0.0
  0
ENDBLK
  5
8026
330
8024
100
AcDbEntity
  8
0
100
AcDbBlockEnd
  0
BLOCK
  5
8033
330
8032
100
AcDbEntity
  8
0
100
AcDbBlockBegin
  2
*D61
 70
     1
 10
0.0
 20
0.0
 30
0.0
  3
*D61
  1

  0
LINE
  5
8035
330
8032
100
AcDbEntity
  8
标注
370
    -2
100
AcDbLine
 10
1229.802045147995
 20
136.3906247622657
 30
0.0
 11
1229.802045147995
 21
132.5612276670285
 31
0.0
  0
LINE
  5
8036
330
8032
100
AcDbEntity
  8
标注
370
    -2
100
AcDbLine
 10
1259.800016648003
 20
136.3906247622657
 30
0.0
 11
1259.800016648003
 21
132.5612276670285
 31
0.0
  0
LINE
  5
8037
330
8032
100
AcDbEntity
  8
标注
370
    -2
100
AcDbLine
 10
1230.452045147995
 20
132.8812276670285
 30
0.0
 11
1243.875195290905
 21
132.8812276670285
 31
0.0
  0
LINE
  5
8038
330
8032
100
AcDbEntity
  8
标注
370
    -2
100
AcDbLine
 10
1259.150016648003
 20
132.8812276670285
 30
0.0
 11
1245.726866505093
 21
132.8812276670285
 31
0.0
  0
SOLID
  5
8039
330
8032
100
AcDbEntity
  8
标注
100
AcDbTrace
 10
1230.452045147995
 20
132.9895610003618
 30
0.0
 11
1230.452045147995
 21
132.7728943336952
 31
0.0
 12
1229.802045147995
 22
132.8812276670285
 32
0.0
 13
1229.802045147995
 23
132.8812276670285
 33
0.0
  0
SOLID
  5
803A
330
8032
100
AcDbEntity
  8
标注
100
AcDbTrace
 10
1259.150016648003
 20
132.9895610003618
 30
0.0
 11
1259.150016648003
 21
132.7728943336952
 31
0.0
 12
1259.800016648003
 22
132.8812276670285
 32
0.0
 13
1259.800016648003
 23
132.8812276670285
 33
0.0
  0
MTEXT
  5
803B
330
8032
100
AcDbEntity
  8
标注
100
AcDbMText
 10
1244.801030897999
 20
132.8812276670285
 30
0.0
 40
0.65
 41
0.0
 71
     5
 72
     1
  1
\A1;30"
 73
     1
 44
1.0
  0
POINT
  5
803C
330
8032
100
AcDbEntity
  8
DEFPOINTS
 62
     0
100
AcDbPoint
 10
1229.802045147995
 20
137.2706247622657
 30
0.0
  0
POINT
  5
803D
330
8032
100
AcDbEntity
  8
DEFPOINTS
 62
     0
100
AcDbPoint
 10
1259.800016648003
 20
137.2706247622657
 30
0.0
  0
POINT
  5
803E
330
8032
100
AcDbEntity
  8
DEFPOINTS
 62
     0
100
AcDbPoint
 10
1259.800016648003
 20
132.8812276670285
 30
0.0
  0
ENDBLK
  5
8034
330
8032
100
AcDbEntity
  8
0
100
AcDbBlockEnd
  0
BLOCK
  5
8041
330
8040
100
AcDbEntity
  8
0
100
AcDbBlockBegin
  2
*D62
 70
     1
 10
0.0
 20
0.0
 30
0.0
  3
*D62
  1

  0
LINE
  5
8043
330
8040
100
AcDbEntity
  8
标注
370
    -2
100
AcDbLine
 10
1259.287027307998
 20
137.4231273263642
 30
0.0
 11
1261.718576989374
 21
137.4231273263642
 31
0.0
  0
LINE
  5
8044
330
8040
100
AcDbEntity
  8
标注
370
    -2
100
AcDbLine
 10
1259.287027307998
 20
153.422937846363
 30
0.0
 11
1261.718576989374
 21
153.422937846363
 31
0.0
  0
LINE
  5
8045
330
8040
100
AcDbEntity
  8
标注
370
    -2
100
AcDbLine
 10
1261.398576989374
 20
138.0731273263642
 30
0.0
 11
1261.398576989374
 21
144.5275687391603
 31
0.0
  0
LINE
  5
8046
330
8040
100
AcDbEntity
  8
标注
370
    -2
100
AcDbLine
 10
1261.398576989374
 20
152.772937846363
 30
0.0
 11
1261.398576989374
 21
146.3184964335669
 31
0.0
  0
SOLID
  5
8047
330
8040
100
AcDbEntity
  8
标注
100
AcDbTrace
 10
1261.290243656041
 20
138.0731273263642
 30
0.0
 11
1261.506910322707
 21
138.0731273263642
 31
0.0
 12
1261.398576989374
 22
137.4231273263642
 32
0.0
 13
1261.398576989374
 23
137.4231273263642
 33
0.0
  0
SOLID
  5
8048
330
8040
100
AcDbEntity
  8
标注
100
AcDbTrace
 10
1261.290243656041
 20
152.772937846363
 30
0.0
 11
1261.506910322707
 21
152.772937846363
 31
0.0
 12
1261.398576989374
 22
153.422937846363
 32
0.0
 13
1261.398576989374
 23
153.422937846363
 33
0.0
  0
MTEXT
  5
8049
330
8040
100
AcDbEntity
  8
标注
100
AcDbMText
 10
1261.398576989374
 20
145.4230325863638
 30
0.0
 40
0.65
 41
0.0
 71
     5
 72
     1
  1
\A1;16"
 11
0.0000000000000001
 21
1.0
 31
0.0
 73
     1
 44
1.0
  0
POINT
  5
804A
330
8040
100
AcDbEntity
  8
DEFPOINTS
 62
     0
100
AcDbPoint
 10
1258.407027307998
 20
137.4231273263642
 30
0.0
  0
POINT
  5
804B
330
8040
100
AcDbEntity
  8
DEFPOINTS
 62
     0
100
AcDbPoint
 10
1258.407027307998
 20
153.422937846363
 30
0.0
  0
POINT
  5
804C
330
8040
100
AcDbEntity
  8
DEFPOINTS
 62
     0
100
AcDbPoint
 10
1261.398576989374
 20
153.422937846363
 30
0.0
  0
ENDBLK
  5
8042
330
8040
100
AcDbEntity
  8
0
100
AcDbBlockEnd
  0
BLOCK
  5
804F
330
804E
100
AcDbEntity
  8
0
100
AcDbBlockBegin
  2
*D63
 70
     1
 10
0.0
 20
0.0
 30
0.0
  3
*D63
  1

  0
LINE
  5
8051
330
804E
100
AcDbEntity
  8
标注
370
    -2
100
AcDbLine
 10
1259.680727308013
 20
136.4230505863663
 30
0.0
 11
1263.570691413144
 21
136.4230505863663
 31
0.0
  0
LINE
  5
8052
330
804E
100
AcDbEntity
  8
标注
370
    -2
100
AcDbLine
 10
1259.680727308013
 20
154.4230145863649
 30
0.0
 11
1263.570691413144
 21
154.4230145863649
 31
0.0
  0
LINE
  5
8053
330
804E
100
AcDbEntity
  8
标注
370
    -2
100
AcDbLine
 10
1263.250691413144
 20
137.0730505863663
 30
0.0
 11
1263.250691413144
 21
144.5275687391624
 31
0.0
  0
LINE
  5
8054
330
804E
100
AcDbEntity
  8
标注
370
    -2
100
AcDbLine
 10
1263.250691413144
 20
153.773014586365
 30
0.0
 11
1263.250691413144
 21
146.318496433569
 31
0.0
  0
SOLID
  5
8055
330
804E
100
AcDbEntity
  8
标注
100
AcDbTrace
 10
1263.142358079811
 20
137.0730505863663
 30
0.0
 11
1263.359024746477
 21
137.0730505863663
 31
0.0
 12
1263.250691413144
 22
136.4230505863663
 32
0.0
 13
1263.250691413144
 23
136.4230505863663
 33
0.0
  0
SOLID
  5
8056
330
804E
100
AcDbEntity
  8
标注
100
AcDbTrace
 10
1263.142358079811
 20
153.773014586365
 30
0.0
 11
1263.359024746477
 21
153.773014586365
 31
0.0
 12
1263.250691413144
 22
154.4230145863649
 32
0.0
 13
1263.250691413144
 23
154.4230145863649
 33
0.0
  0
MTEXT
  5
8057
330
804E
100
AcDbEntity
  8
标注
100
AcDbMText
 10
1263.250691413144
 20
145.4230325863659
 30
0.0
 40
0.65
 41
0.0
 71
     5
 72
     1
  1
\A1;18"
 11
0.0000000000000001
 21
1.0
 31
0.0
 73
     1
 44
1.0
  0
POINT
  5
8058
330
804E
100
AcDbEntity
  8
DEFPOINTS
 62
     0
100
AcDbPoint
 10
1258.800727308013
 20
136.4230505863663
 30
0.0
  0
POINT
  5
8059
330
804E
100
AcDbEntity
  8
DEFPOINTS
 62
     0
100
AcDbPoint
 10
1258.800727308013
 20
154.4230145863649
 30
0.0
  0
POINT
  5
805A
330
804E
100
AcDbEntity
  8
DEFPOINTS
 62
     0
100
AcDbPoint
 10
1263.250691413144
 20
154.4230145863649
 30
0.0
  0
ENDBLK
  5
8050
330
804E
100
AcDbEntity
  8
0
100
AcDbBlockEnd
  0
BLOCK
  5
805D
330
805C
100
AcDbEntity
  8
0
100
AcDbBlockBegin
  2
*D64
 70
     1
 10
0.0
 20
0.0
 30
0.0
  3
*D64
  1

  0
LINE
  5
805F
330
805C
100
AcDbEntity
  8
标注
370
    -2
100
AcDbLine
 10
1260.680016648003
 20
176.5327272833246
 30
0.0
 11
1262.446949403641
 21
176.5327272833246
 31
0.0
  0
LINE
  5
8060
330
805C
100
AcDbEntity
  8
标注
370
    -2
100
AcDbLine
 10
1260.680016648003
 20
166.5327272833247
 30
0.0
 11
1262.446949403641
 21
166.5327272833247
 31
0.0
  0
LINE
  5
8061
330
805C
100
AcDbEntity
  8
标注
370
    -2
100
AcDbLine
 10
1262.126949403641
 20
175.8827272833246
 30
0.0
 11
1262.126949403641
 21
172.4281911305279
 31
0.0
  0
LINE
  5
8062
330
805C
100
AcDbEntity
  8
标注
370
    -2
100
AcDbLine
 10
1262.126949403641
 20
167.1827272833247
 30
0.0
 11
1262.126949403641
 21
170.6372634361214
 31
0.0
  0
SOLID
  5
8063
330
805C
100
AcDbEntity
  8
标注
100
AcDbTrace
 10
1262.018616070308
 20
175.8827272833246
 30
0.0
 11
1262.235282736975
 21
175.8827272833246
 31
0.0
 12
1262.126949403641
 22
176.5327272833246
 32
0.0
 13
1262.126949403641
 23
176.5327272833246
 33
0.0
  0
SOLID
  5
8064
330
805C
100
AcDbEntity
  8
标注
100
AcDbTrace
 10
1262.018616070308
 20
167.1827272833247
 30
0.0
 11
1262.235282736975
 21
167.1827272833247
 31
0.0
 12
1262.126949403641
 22
166.5327272833247
 32
0.0
 13
1262.126949403641
 23
166.5327272833247
 33
0.0
  0
MTEXT
  5
8065
330
805C
100
AcDbEntity
  8
标注
100
AcDbMText
 10
1262.126949403641
 20
171.5327272833248
 30
0.0
 40
0.65
 41
0.0
 71
     5
 72
     1
  1
\A1;10"
 11
0.0000000000000001
 21
1.0
 31
0.0
 73
     1
 44
1.0
  0
POINT
  5
8066
330
805C
100
AcDbEntity
  8
DEFPOINTS
 62
     0
100
AcDbPoint
 10
1259.800016648003
 20
176.5327272833246
 30
0.0
  0
POINT
  5
8067
330
805C
100
AcDbEntity
  8
DEFPOINTS
 62
     0
100
AcDbPoint
 10
1259.800016648003
 20
166.5327272833247
 30
0.0
  0
POINT
  5
8068
330
805C
100
AcDbEntity
  8
DEFPOINTS
 62
     0
100
AcDbPoint
 10
1262.126949403641
 20
166.5327272833247
 30
0.0
  0
ENDBLK
  5
805E
330
805C
100
AcDbEntity
  8
0
100
AcDbBlockEnd
  0
BLOCK
  5
8077
330
8076
100
AcDbEntity
  8
0
100
AcDbBlockBegin
  2
*D65
 70
     1
 10
0.0
 20
0.0
 30
0.0
  3
*D65
  1

  0
LINE
  5
8079
330
8076
100
AcDbEntity
  8
标注
370
    -2
100
AcDbLine
 10
1230.468837135554
 20
166.2296380947155
 30
0.0
 11
1230.013630525331
 21
165.765647855585
 31
0.0
  0
MTEXT
  5
807A
330
8076
100
AcDbEntity
  8
标注
100
AcDbMText
 10
1231.747408133502
 20
168.005598712698
 30
0.0
 40
0.65
 41
0.0
 71
     5
 72
     1
  1
\A1;R3/8"
 11
0.7003178618831285
 21
0.7138311371237904
 31
0.0
 73
     1
 44
1.0
  0
LINE
  5
807B
330
8076
100
AcDbEntity
  8
标注
370
    -2
100
AcDbLine
 10
1231.199758888002
 20
166.9746636525315
 30
0.0
 11
1230.924043745779
 21
166.6936283338459
 31
0.0
  0
SOLID
  5
807C
330
8076
100
AcDbEntity
  8
标注
100
AcDbTrace
 10
1230.391505429033
 20
166.3055058630862
 30
0.0
 11
1230.546168842076
 21
166.1537703263448
 31
0.0
 12
1230.924043745779
 22
166.6936283338459
 32
0.0
 13
1230.924043745779
 23
166.6936283338459
 33
0.0
  0
POINT
  5
807D
330
8076
100
AcDbEntity
  8
DEFPOINTS
 62
     0
100
AcDbPoint
 10
1230.924043745779
 20
166.6936283338459
 30
0.0
  0
POINT
  5
807E
330
8076
100
AcDbEntity
  8
DEFPOINTS
 62
     0
100
AcDbPoint
 10
1231.199758888002
 20
166.9746636525315
 30
0.0
  0
ENDBLK
  5
8078
330
8076
100
AcDbEntity
  8
0
100
AcDbBlockEnd
  0
BLOCK
  5
8081
330
8080
100
AcDbEntity
  8
0
100
AcDbBlockBegin
  2
*D66
 70
     1
 10
0.0
 20
0.0
 30
0.0
  3
*D66
  1

  0
LINE
  5
8089
330
8080
100
AcDbEntity
  8
标注
370
    -2
100
AcDbLine
 10
1230.432768389756
 20
137.103903708109
 30
0.0
 11
1229.958041012292
 21
136.6599060537388
 31
0.0
  0
MTEXT
  5
808A
330
8080
100
AcDbEntity
  8
标注
100
AcDbMText
 10
1231.801786262161
 20
138.9961051643161
 30
0.0
 40
0.65
 41
0.0
 71
     5
 72
     1
  1
\A1;4-R3/8"
 11
0.7303498114830049
 21
0.6830733144156193
 31
0.0
 73
     1
 44
1.0
  0
LINE
  5
808B
330
8080
100
AcDbEntity
  8
标注
370
    -2
100
AcDbLine
 10
1231.195034488001
 20
137.8168273263646
 30
0.0
 11
1230.90749576722
 21
137.547901362479
 31
0.0
  0
SOLID
  5
808C
330
8080
100
AcDbEntity
  8
标注
100
AcDbTrace
 10
1230.358768780694
 20
137.1830249376862
 30
0.0
 11
1230.506767998818
 21
137.0247824785316
 31
0.0
 12
1230.90749576722
 22
137.547901362479
 32
0.0
 13
1230.90749576722
 23
137.547901362479
 33
0.0
  0
POINT
  5
808D
330
8080
100
AcDbEntity
  8
DEFPOINTS
 62
     0
100
AcDbPoint
 10
1230.90749576722
 20
137.547901362479
 30
0.0
  0
POINT
  5
808E
330
8080
100
AcDbEntity
  8
DEFPOINTS
 62
     0
100
AcDbPoint
 10
1231.195034488001
 20
137.8168273263646
 30
0.0
  0
ENDBLK
  5
8082
330
8080
100
AcDbEntity
  8
0
100
AcDbBlockEnd
  0
BLOCK
  5
8091
330
8090
100
AcDbEntity
  8
0
100
AcDbBlockBegin
  2
*D67
 70
     1
 10
0.0
 20
0.0
 30
0.0
  3
*D67
  1

  0
LINE
  5
8093
330
8090
100
AcDbEntity
  8
标注
370
    -2
100
AcDbLine
 10
1230.556599675105
 20
106.102688422634
 30
0.0
 11
1230.187044514128
 21
105.5679651456064
 31
0.0
  0
MTEXT
  5
8094
330
8090
100
AcDbEntity
  8
标注
100
AcDbMText
 10
1231.595928399114
 20
108.2340444669364
 30
0.0
 40
0.65
 41
0.0
 71
     5
 72
     1
  1
\A1;R1/2"
 11
0.5685464015033243
 21
0.8226511954270904
 31
0.0
 73
     1
 44
1.0
  0
LINE
  5
8095
330
8090
100
AcDbEntity
  8
标注
370
    -2
100
AcDbLine
 10
1231.194758898009
 20
107.0260650304292
 30
0.0
 11
1230.926154836083
 21
106.6374116996617
 31
0.0
  0
SOLID
  5
8096
330
8090
100
AcDbEntity
  8
标注
100
AcDbTrace
 10
1230.467479128934
 20
106.1642809494635
 30
0.0
 11
1230.645720221277
 21
106.0410958958044
 31
0.0
 12
1230.926154836083
 22
106.6374116996617
 32
0.0
 13
1230.926154836083
 23
106.6374116996617
 33
0.0
  0
POINT
  5
8097
330
8090
100
AcDbEntity
  8
DEFPOINTS
 62
     0
100
AcDbPoint
 10
1230.926154836083
 20
106.6374116996617
 30
0.0
  0
POINT
  5
8098
330
8090
100
AcDbEntity
  8
DEFPOINTS
 62
     0
100
AcDbPoint
 10
1231.194758898009
 20
107.0260650304292
 30
0.0
  0
ENDBLK
  5
8092
330
8090
100
AcDbEntity
  8
0
100
AcDbBlockEnd
  0
BLOCK
  5
81F9
330
81F8
100
AcDbEntity
  8
0
100
AcDbBlockBegin
  2
*D68
 70
     1
 10
0.0
 20
0.0
 30
0.0
  3
*D68
  1

  0
LINE
  5
83F8
330
81F8
100
AcDbEntity
  8
标注
370
    -2
100
AcDbLine
 10
1408.238922443617
 20
209.5576127188436
 30
0.0
 11
1408.238922443617
 21
207.2810956963168
 31
0.0
  0
LINE
  5
83F9
330
81F8
100
AcDbEntity
  8
标注
370
    -2
100
AcDbLine
 10
1438.3963424435
 20
209.5576127188436
 30
0.0
 11
1438.3963424435
 21
207.2810956963168
 31
0.0
  0
LINE
  5
83FA
330
81F8
100
AcDbEntity
  8
标注
370
    -2
100
AcDbLine
 10
1408.888922443617
 20
207.6010956963168
 30
0.0
 11
1421.634498064295
 21
207.6010956963168
 31
0.0
  0
LINE
  5
83FB
330
81F8
100
AcDbEntity
  8
标注
370
    -2
100
AcDbLine
 10
1437.7463424435
 20
207.6010956963168
 30
0.0
 11
1425.000766822822
 21
207.6010956963168
 31
0.0
  0
SOLID
  5
83FC
330
81F8
100
AcDbEntity
  8
标注
100
AcDbTrace
 10
1408.888922443617
 20
207.7094290296501
 30
0.0
 11
1408.888922443617
 21
207.4927623629835
 31
0.0
 12
1408.238922443617
 22
207.6010956963168
 32
0.0
 13
1408.238922443617
 23
207.6010956963168
 33
0.0
  0
SOLID
  5
83FD
330
81F8
100
AcDbEntity
  8
标注
100
AcDbTrace
 10
1437.7463424435
 20
207.7094290296501
 30
0.0
 11
1437.7463424435
 21
207.4927623629835
 31
0.0
 12
1438.3963424435
 22
207.6010956963168
 32
0.0
 13
1438.3963424435
 23
207.6010956963168
 33
0.0
  0
MTEXT
  5
83FE
330
81F8
100
AcDbEntity
  8
标注
100
AcDbMText
 10
1423.317632443558
 20
207.6010956963168
 30
0.0
 40
0.65
 41
0.0
 71
     5
 72
     1
  1
\A1;30 1/8"
 73
     1
 44
1.0
  0
POINT
  5
83FF
330
81F8
100
AcDbEntity
  8
DEFPOINTS
 62
     0
100
AcDbPoint
 10
1408.238922443617
 20
210.4376127188436
 30
0.0
  0
POINT
  5
8400
330
81F8
100
AcDbEntity
  8
DEFPOINTS
 62
     0
100
AcDbPoint
 10
1438.3963424435
 20
210.4376127188436
 30
0.0
  0
POINT
  5
8401
330
81F8
100
AcDbEntity
  8
DEFPOINTS
 62
     0
100
AcDbPoint
 10
1438.3963424435
 20
207.6010956963168
 30
0.0
  0
ENDBLK
  5
81FA
330
81F8
100
AcDbEntity
  8
0
100
AcDbBlockEnd
  0
BLOCK
  5
8207
330
8206
100
AcDbEntity
  8
0
100
AcDbBlockBegin
  2
*D69
 70
     1
 10
0.0
 20
0.0
 30
0.0
  3
*D69
  1

  0
LINE
  5
8402
330
8206
100
AcDbEntity
  8
标注
370
    -2
100
AcDbLine
 10
1438.803902443504
 20
209.9651727188477
 30
0.0
 11
1441.121663012398
 21
209.9651727188477
 31
0.0
  0
LINE
  5
8403
330
8206
100
AcDbEntity
  8
标注
370
    -2
100
AcDbLine
 10
1438.803902443504
 20
226.1226207187812
 30
0.0
 11
1441.121663012398
 21
226.1226207187812
 31
0.0
  0
LINE
  5
8404
330
8206
100
AcDbEntity
  8
标注
370
    -2
100
AcDbLine
 10
1440.801663012399
 20
210.6151727188477
 30
0.0
 11
1440.801663012399
 21
216.391134099442
 31
0.0
  0
LINE
  5
8405
330
8206
100
AcDbEntity
  8
标注
370
    -2
100
AcDbLine
 10
1440.801663012399
 20
225.4726207187812
 30
0.0
 11
1440.801663012399
 21
219.6966593381869
 31
0.0
  0
SOLID
  5
8406
330
8206
100
AcDbEntity
  8
标注
100
AcDbTrace
 10
1440.693329679065
 20
210.6151727188477
 30
0.0
 11
1440.909996345732
 21
210.6151727188477
 31
0.0
 12
1440.801663012399
 22
209.9651727188477
 32
0.0
 13
1440.801663012399
 23
209.9651727188477
 33
0.0
  0
SOLID
  5
8407
330
8206
100
AcDbEntity
  8
标注
100
AcDbTrace
 10
1440.693329679065
 20
225.4726207187812
 30
0.0
 11
1440.909996345732
 21
225.4726207187812
 31
0.0
 12
1440.801663012399
 22
226.1226207187812
 32
0.0
 13
1440.801663012399
 23
226.1226207187812
 33
0.0
  0
MTEXT
  5
8408
330
8206
100
AcDbEntity
  8
标注
100
AcDbMText
 10
1440.801663012399
 20
218.0438967188147
 30
0.0
 40
0.65
 41
0.0
 71
     5
 72
     1
  1
\A1;16 1/8"
 11
0.0000000000000001
 21
1.0
 31
0.0
 73
     1
 44
1.0
  0
POINT
  5
8409
330
8206
100
AcDbEntity
  8
DEFPOINTS
 62
     0
100
AcDbPoint
 10
1437.923902443504
 20
209.9651727188477
 30
0.0
  0
POINT
  5
840A
330
8206
100
AcDbEntity
  8
DEFPOINTS
 62
     0
100
AcDbPoint
 10
1437.923902443504
 20
226.1226207187812
 30
0.0
  0
POINT
  5
840B
330
8206
100
AcDbEntity
  8
DEFPOINTS
 62
     0
100
AcDbPoint
 10
1440.801663012399
 20
226.1226207187812
 30
0.0
  0
ENDBLK
  5
8208
330
8206
100
AcDbEntity
  8
0
100
AcDbBlockEnd
  0
BLOCK
  5
821F
330
821E
100
AcDbEntity
  8
0
100
AcDbBlockBegin
  2
*D70
 70
     1
 10
0.0
 20
0.0
 30
0.0
  3
*D70
  1

  0
LINE
  5
840C
330
821E
100
AcDbEntity
  8
标注
370
    -2
100
AcDbLine
 10
1408.317662443621
 20
240.8140271435939
 30
0.0
 11
1408.317662443621
 21
238.0309280552166
 31
0.0
  0
LINE
  5
840D
330
821E
100
AcDbEntity
  8
标注
370
    -2
100
AcDbLine
 10
1427.31762444354
 20
240.8140271435939
 30
0.0
 11
1427.31762444354
 21
238.0309280552166
 31
0.0
  0
LINE
  5
840E
330
821E
100
AcDbEntity
  8
标注
370
    -2
100
AcDbLine
 10
1408.967662443622
 20
238.3509280552166
 30
0.0
 11
1416.922179596378
 21
238.3509280552166
 31
0.0
  0
LINE
  5
840F
330
821E
100
AcDbEntity
  8
标注
370
    -2
100
AcDbLine
 10
1426.66762444354
 20
238.3509280552166
 30
0.0
 11
1418.713107290784
 21
238.3509280552166
 31
0.0
  0
SOLID
  5
8410
330
821E
100
AcDbEntity
  8
标注
100
AcDbTrace
 10
1408.967662443622
 20
238.4592613885499
 30
0.0
 11
1408.967662443622
 21
238.2425947218833
 31
0.0
 12
1408.317662443621
 22
238.3509280552166
 32
0.0
 13
1408.317662443621
 23
238.3509280552166
 33
0.0
  0
SOLID
  5
8411
330
821E
100
AcDbEntity
  8
标注
100
AcDbTrace
 10
1426.66762444354
 20
238.4592613885499
 30
0.0
 11
1426.66762444354
 21
238.2425947218833
 31
0.0
 12
1427.31762444354
 22
238.3509280552166
 32
0.0
 13
1427.31762444354
 23
238.3509280552166
 33
0.0
  0
MTEXT
  5
8412
330
821E
100
AcDbEntity
  8
标注
100
AcDbMText
 10
1417.817643443581
 20
238.3509280552166
 30
0.0
 40
0.65
 41
0.0
 71
     5
 72
     1
  1
\A1;19"
 73
     1
 44
1.0
  0
POINT
  5
8413
330
821E
100
AcDbEntity
  8
DEFPOINTS
 62
     0
100
AcDbPoint
 10
1408.317662443621
 20
241.6940271435939
 30
0.0
  0
POINT
  5
8414
330
821E
100
AcDbEntity
  8
DEFPOINTS
 62
     0
100
AcDbPoint
 10
1427.31762444354
 20
241.6940271435939
 30
0.0
  0
POINT
  5
8415
330
821E
100
AcDbEntity
  8
DEFPOINTS
 62
     0
100
AcDbPoint
 10
1427.31762444354
 20
238.3509280552166
 30
0.0
  0
ENDBLK
  5
8220
330
821E
100
AcDbEntity
  8
0
100
AcDbBlockEnd
  0
BLOCK
  5
822D
330
822C
100
AcDbEntity
  8
0
100
AcDbBlockBegin
  2
*D71
 70
     1
 10
0.0
 20
0.0
 30
0.0
  3
*D71
  1

  0
LINE
  5
8416
330
822C
100
AcDbEntity
  8
标注
370
    -2
100
AcDbLine
 10
1428.317622443535
 20
240.8140271435939
 30
0.0
 11
1428.317622443535
 21
238.0309280552166
 31
0.0
  0
LINE
  5
8417
330
822C
100
AcDbEntity
  8
标注
370
    -2
100
AcDbLine
 10
1438.317602443502
 20
240.8140271435939
 30
0.0
 11
1438.317602443502
 21
238.0309280552166
 31
0.0
  0
LINE
  5
8418
330
822C
100
AcDbEntity
  8
标注
370
    -2
100
AcDbLine
 10
1428.967622443535
 20
238.3509280552166
 30
0.0
 11
1432.422148596315
 21
238.3509280552166
 31
0.0
  0
LINE
  5
8419
330
822C
100
AcDbEntity
  8
标注
370
    -2
100
AcDbLine
 10
1437.667602443502
 20
238.3509280552166
 30
0.0
 11
1434.213076290722
 21
238.3509280552166
 31
0.0
  0
SOLID
  5
841A
330
822C
100
AcDbEntity
  8
标注
100
AcDbTrace
 10
1428.967622443535
 20
238.4592613885499
 30
0.0
 11
1428.967622443535
 21
238.2425947218833
 31
0.0
 12
1428.317622443535
 22
238.3509280552166
 32
0.0
 13
1428.317622443535
 23
238.3509280552166
 33
0.0
  0
SOLID
  5
841B
330
822C
100
AcDbEntity
  8
标注
100
AcDbTrace
 10
1437.667602443502
 20
238.4592613885499
 30
0.0
 11
1437.667602443502
 21
238.2425947218833
 31
0.0
 12
1438.317602443502
 22
238.3509280552166
 32
0.0
 13
1438.317602443502
 23
238.3509280552166
 33
0.0
  0
MTEXT
  5
841C
330
822C
100
AcDbEntity
  8
标注
100
AcDbMText
 10
1433.317612443518
 20
238.3509280552166
 30
0.0
 40
0.65
 41
0.0
 71
     5
 72
     1
  1
\A1;10"
 73
     1
 44
1.0
  0
POINT
  5
841D
330
822C
100
AcDbEntity
  8
DEFPOINTS
 62
     0
100
AcDbPoint
 10
1428.317622443535
 20
241.6940271435939
 30
0.0
  0
POINT
  5
841E
330
822C
100
AcDbEntity
  8
DEFPOINTS
 62
     0
100
AcDbPoint
 10
1438.317602443502
 20
241.6940271435939
 30
0.0
  0
POINT
  5
841F
330
822C
100
AcDbEntity
  8
DEFPOINTS
 62
     0
100
AcDbPoint
 10
1438.317602443502
 20
238.3509280552166
 30
0.0
  0
ENDBLK
  5
822E
330
822C
100
AcDbEntity
  8
0
100
AcDbBlockEnd
  0
BLOCK
  5
823B
330
823A
100
AcDbEntity
  8
0
100
AcDbBlockBegin
  2
*D72
 70
     1
 10
0.0
 20
0.0
 30
0.0
  3
*D72
  1

  0
LINE
  5
8420
330
823A
100
AcDbEntity
  8
标注
370
    -2
100
AcDbLine
 10
1438.803902443504
 20
241.300327143595
 30
0.0
 11
1441.543317744897
 21
241.300327143595
 31
0.0
  0
LINE
  5
8421
330
823A
100
AcDbEntity
  8
标注
370
    -2
100
AcDbLine
 10
1438.803902443504
 20
257.3002951435201
 30
0.0
 11
1441.543317744897
 21
257.3002951435201
 31
0.0
  0
LINE
  5
8422
330
823A
100
AcDbEntity
  8
标注
370
    -2
100
AcDbLine
 10
1441.223317744897
 20
241.950327143595
 30
0.0
 11
1441.223317744897
 21
248.4048472963543
 31
0.0
  0
LINE
  5
8423
330
823A
100
AcDbEntity
  8
标注
370
    -2
100
AcDbLine
 10
1441.223317744897
 20
256.6502951435202
 30
0.0
 11
1441.223317744897
 21
250.1957749907609
 31
0.0
  0
SOLID
  5
8424
330
823A
100
AcDbEntity
  8
标注
100
AcDbTrace
 10
1441.114984411563
 20
241.950327143595
 30
0.0
 11
1441.33165107823
 21
241.950327143595
 31
0.0
 12
1441.223317744897
 22
241.300327143595
 32
0.0
 13
1441.223317744897
 23
241.300327143595
 33
0.0
  0
SOLID
  5
8425
330
823A
100
AcDbEntity
  8
标注
100
AcDbTrace
 10
1441.114984411563
 20
256.6502951435202
 30
0.0
 11
1441.33165107823
 21
256.6502951435202
 31
0.0
 12
1441.223317744897
 22
257.3002951435201
 32
0.0
 13
1441.223317744897
 23
257.3002951435201
 33
0.0
  0
MTEXT
  5
8426
330
823A
100
AcDbEntity
  8
标注
100
AcDbMText
 10
1441.223317744897
 20
249.3003111435578
 30
0.0
 40
0.65
 41
0.0
 71
     5
 72
     1
  1
\A1;16"
 11
0.0000000000000001
 21
1.0
 31
0.0
 73
     1
 44
1.0
  0
POINT
  5
8427
330
823A
100
AcDbEntity
  8
DEFPOINTS
 62
     0
100
AcDbPoint
 10
1437.923902443504
 20
241.300327143595
 30
0.0
  0
POINT
  5
8428
330
823A
100
AcDbEntity
  8
DEFPOINTS
 62
     0
100
AcDbPoint
 10
1437.923902443504
 20
257.3002951435201
 30
0.0
  0
POINT
  5
8429
330
823A
100
AcDbEntity
  8
DEFPOINTS
 62
     0
100
AcDbPoint
 10
1441.223317744897
 20
257.3002951435201
 30
0.0
  0
ENDBLK
  5
823C
330
823A
100
AcDbEntity
  8
0
100
AcDbBlockEnd
  0
BLOCK
  5
8249
330
8248
100
AcDbEntity
  8
0
100
AcDbBlockBegin
  2
*D73
 70
     1
 10
0.0
 20
0.0
 30
0.0
  3
*D73
  1

  0
LINE
  5
842A
330
8248
100
AcDbEntity
  8
标注
370
    -2
100
AcDbLine
 10
1439.197602443503
 20
240.3003291435997
 30
0.0
 11
1443.323246537099
 21
240.3003291435997
 31
0.0
  0
LINE
  5
842B
330
8248
100
AcDbEntity
  8
标注
370
    -2
100
AcDbLine
 10
1439.197602443503
 20
258.3002931435155
 30
0.0
 11
1443.323246537099
 21
258.3002931435155
 31
0.0
  0
LINE
  5
842C
330
8248
100
AcDbEntity
  8
标注
370
    -2
100
AcDbLine
 10
1443.003246537099
 20
240.9503291435997
 30
0.0
 11
1443.003246537099
 21
248.4048472963543
 31
0.0
  0
LINE
  5
842D
330
8248
100
AcDbEntity
  8
标注
370
    -2
100
AcDbLine
 10
1443.003246537099
 20
257.6502931435155
 30
0.0
 11
1443.003246537099
 21
250.1957749907609
 31
0.0
  0
SOLID
  5
842E
330
8248
100
AcDbEntity
  8
标注
100
AcDbTrace
 10
1442.894913203766
 20
240.9503291435997
 30
0.0
 11
1443.111579870432
 21
240.9503291435997
 31
0.0
 12
1443.003246537099
 22
240.3003291435997
 32
0.0
 13
1443.003246537099
 23
240.3003291435997
 33
0.0
  0
SOLID
  5
842F
330
8248
100
AcDbEntity
  8
标注
100
AcDbTrace
 10
1442.894913203766
 20
257.6502931435155
 30
0.0
 11
1443.111579870432
 21
257.6502931435155
 31
0.0
 12
1443.003246537099
 22
258.3002931435155
 32
0.0
 13
1443.003246537099
 23
258.3002931435155
 33
0.0
  0
MTEXT
  5
8430
330
8248
100
AcDbEntity
  8
标注
100
AcDbMText
 10
1443.003246537099
 20
249.3003111435578
 30
0.0
 40
0.65
 41
0.0
 71
     5
 72
     1
  1
\A1;18"
 11
0.0000000000000001
 21
1.0
 31
0.0
 73
     1
 44
1.0
  0
POINT
  5
8431
330
8248
100
AcDbEntity
  8
DEFPOINTS
 62
     0
100
AcDbPoint
 10
1438.317602443502
 20
240.3003291435997
 30
0.0
  0
POINT
  5
8432
330
8248
100
AcDbEntity
  8
DEFPOINTS
 62
     0
100
AcDbPoint
 10
1438.317602443502
 20
258.3002931435155
 30
0.0
  0
POINT
  5
8433
330
8248
100
AcDbEntity
  8
DEFPOINTS
 62
     0
100
AcDbPoint
 10
1443.003246537099
 20
258.3002931435155
 30
0.0
  0
ENDBLK
  5
824A
330
8248
100
AcDbEntity
  8
0
100
AcDbBlockEnd
  0
BLOCK
  5
8257
330
8256
100
AcDbEntity
  8
0
100
AcDbBlockBegin
  2
*D74
 70
     1
 10
0.0
 20
0.0
 30
0.0
  3
*D74
  1

  0
LINE
  5
8434
330
8256
100
AcDbEntity
  8
标注
370
    -2
100
AcDbLine
 10
1407.317664443627
 20
240.3533981435875
 30
0.0
 11
1407.317664443627
 21
236.1244401009526
 31
0.0
  0
LINE
  5
8435
330
8256
100
AcDbEntity
  8
标注
370
    -2
100
AcDbLine
 10
1439.317600443498
 20
240.420327143595
 30
0.0
 11
1439.317600443498
 21
236.1244401009526
 31
0.0
  0
LINE
  5
8436
330
8256
100
AcDbEntity
  8
标注
370
    -2
100
AcDbLine
 10
1407.967664443627
 20
236.4444401009526
 30
0.0
 11
1422.391796836468
 21
236.4444401009526
 31
0.0
  0
LINE
  5
8437
330
8256
100
AcDbEntity
  8
标注
370
    -2
100
AcDbLine
 10
1438.667600443498
 20
236.4444401009526
 30
0.0
 11
1424.243468050657
 21
236.4444401009526
 31
0.0
  0
SOLID
  5
8438
330
8256
100
AcDbEntity
  8
标注
100
AcDbTrace
 10
1407.967664443627
 20
236.552773434286
 30
0.0
 11
1407.967664443627
 21
236.3361067676193
 31
0.0
 12
1407.317664443627
 22
236.4444401009526
 32
0.0
 13
1407.317664443627
 23
236.4444401009526
 33
0.0
  0
SOLID
  5
8439
330
8256
100
AcDbEntity
  8
标注
100
AcDbTrace
 10
1438.667600443498
 20
236.552773434286
 30
0.0
 11
1438.667600443498
 21
236.3361067676193
 31
0.0
 12
1439.317600443498
 22
236.4444401009526
 32
0.0
 13
1439.317600443498
 23
236.4444401009526
 33
0.0
  0
MTEXT
  5
843A
330
8256
100
AcDbEntity
  8
标注
100
AcDbMText
 10
1423.317632443563
 20
236.4444401009526
 30
0.0
 40
0.65
 41
0.0
 71
     5
 72
     1
  1
\A1;32"
 73
     1
 44
1.0
  0
POINT
  5
843B
330
8256
100
AcDbEntity
  8
DEFPOINTS
 62
     0
100
AcDbPoint
 10
1407.317664443627
 20
241.2333981435875
 30
0.0
  0
POINT
  5
843C
330
8256
100
AcDbEntity
  8
DEFPOINTS
 62
     0
100
AcDbPoint
 10
1439.317600443498
 20
241.300327143595
 30
0.0
  0
POINT
  5
843D
330
8256
100
AcDbEntity
  8
DEFPOINTS
 62
     0
100
AcDbPoint
 10
1439.317600443498
 20
236.4444401009526
 30
0.0
  0
ENDBLK
  5
8258
330
8256
100
AcDbEntity
  8
0
100
AcDbBlockEnd
  0
BLOCK
  5
8265
330
8264
100
AcDbEntity
  8
0
100
AcDbBlockBegin
  2
*D75
 70
     1
 10
0.0
 20
0.0
 30
0.0
  3
*D75
  1

  0
LINE
  5
843E
330
8264
100
AcDbEntity
  8
标注
370
    -2
100
AcDbLine
 10
1406.437664443618
 20
282.6440848677611
 30
0.0
 11
1404.989862330499
 21
282.6440848677611
 31
0.0
  0
LINE
  5
843F
330
8264
100
AcDbEntity
  8
标注
370
    -2
100
AcDbLine
 10
1406.863130605003
 20
272.6903648677959
 30
0.0
 11
1404.989862330499
 21
272.6903648677959
 31
0.0
  0
LINE
  5
8440
330
8264
100
AcDbEntity
  8
标注
370
    -2
100
AcDbLine
 10
1405.309862330499
 20
281.9940848677611
 30
0.0
 11
1405.309862330499
 21
278.5626887149818
 31
0.0
  0
LINE
  5
8441
330
8264
100
AcDbEntity
  8
标注
370
    -2
100
AcDbLine
 10
1405.309862330499
 20
273.3403648677959
 30
0.0
 11
1405.309862330499
 21
276.7717610205752
 31
0.0
  0
SOLID
  5
8442
330
8264
100
AcDbEntity
  8
标注
100
AcDbTrace
 10
1405.201528997165
 20
281.9940848677611
 30
0.0
 11
1405.418195663832
 21
281.9940848677611
 31
0.0
 12
1405.309862330499
 22
282.6440848677611
 32
0.0
 13
1405.309862330499
 23
282.6440848677611
 33
0.0
  0
SOLID
  5
8443
330
8264
100
AcDbEntity
  8
标注
100
AcDbTrace
 10
1405.201528997165
 20
273.3403648677959
 30
0.0
 11
1405.418195663832
 21
273.3403648677959
 31
0.0
 12
1405.309862330499
 22
272.6903648677959
 32
0.0
 13
1405.309862330499
 23
272.6903648677959
 33
0.0
  0
MTEXT
  5
8444
330
8264
100
AcDbEntity
  8
标注
100
AcDbMText
 10
1405.309862330499
 20
277.6672248677787
 30
0.0
 40
0.65
 41
0.0
 71
     5
 72
     1
  1
\A1;10"
 11
0.0000000000000001
 21
1.0
 31
0.0
 73
     1
 44
1.0
  0
POINT
  5
8445
330
8264
100
AcDbEntity
  8
DEFPOINTS
 62
     0
100
AcDbPoint
 10
1407.317664443619
 20
282.6440848677611
 30
0.0
  0
POINT
  5
8446
330
8264
100
AcDbEntity
  8
DEFPOINTS
 62
     0
100
AcDbPoint
 10
1407.743130605004
 20
272.6903648677959
 30
0.0
  0
POINT
  5
8447
330
8264
100
AcDbEntity
  8
DEFPOINTS
 62
     0
100
AcDbPoint
 10
1405.309862330499
 20
272.6903648677959
 30
0.0
  0
ENDBLK
  5
8266
330
8264
100
AcDbEntity
  8
0
100
AcDbBlockEnd
  0
BLOCK
  5
82AD
330
82AC
100
AcDbEntity
  8
0
100
AcDbBlockBegin
  2
*D76
 70
     1
 10
0.0
 20
0.0
 30
0.0
  3
*D76
  1

  0
LINE
  5
8448
330
82AC
100
AcDbEntity
  8
标注
370
    -2
100
AcDbLine
 10
1440.197600443499
 20
282.6440848677611
 30
0.0
 11
1441.133697676607
 21
282.6440848677611
 31
0.0
  0
LINE
  5
8449
330
82AC
100
AcDbEntity
  8
标注
370
    -2
100
AcDbLine
 10
1439.75337003041
 20
274.6903608677907
 30
0.0
 11
1441.133697676607
 21
274.6903608677907
 31
0.0
  0
LINE
  5
844A
330
82AC
100
AcDbEntity
  8
标注
370
    -2
100
AcDbLine
 10
1440.813697676607
 20
281.9940848677611
 30
0.0
 11
1440.813697676607
 21
279.3412167286216
 31
0.0
  0
LINE
  5
844B
330
82AC
100
AcDbEntity
  8
标注
370
    -2
100
AcDbLine
 10
1440.813697676607
 20
275.3403608677907
 30
0.0
 11
1440.813697676607
 21
277.9932290069301
 31
0.0
  0
SOLID
  5
844C
330
82AC
100
AcDbEntity
  8
标注
100
AcDbTrace
 10
1440.705364343274
 20
281.9940848677611
 30
0.0
 11
1440.92203100994
 21
281.9940848677611
 31
0.0
 12
1440.813697676607
 22
282.6440848677611
 32
0.0
 13
1440.813697676607
 23
282.6440848677611
 33
0.0
  0
SOLID
  5
844D
330
82AC
100
AcDbEntity
  8
标注
100
AcDbTrace
 10
1440.705364343274
 20
275.3403608677907
 30
0.0
 11
1440.92203100994
 21
275.3403608677907
 31
0.0
 12
1440.813697676607
 22
274.6903608677907
 32
0.0
 13
1440.813697676607
 23
274.6903608677907
 33
0.0
  0
MTEXT
  5
844E
330
82AC
100
AcDbEntity
  8
标注
100
AcDbMText
 10
1440.813697676607
 20
278.6672228677761
 30
0.0
 40
0.65
 41
0.0
 71
     5
 72
     1
  1
\A1;8"
 11
0.0000000000000001
 21
1.0
 31
0.0
 73
     1
 44
1.0
  0
POINT
  5
844F
330
82AC
100
AcDbEntity
  8
DEFPOINTS
 62
     0
100
AcDbPoint
 10
1439.317600443498
 20
282.6440848677611
 30
0.0
  0
POINT
  5
8450
330
82AC
100
AcDbEntity
  8
DEFPOINTS
 62
     0
100
AcDbPoint
 10
1438.87337003041
 20
274.6903608677907
 30
0.0
  0
POINT
  5
8451
330
82AC
100
AcDbEntity
  8
DEFPOINTS
 62
     0
100
AcDbPoint
 10
1440.813697676607
 20
274.6903608677907
 30
0.0
  0
ENDBLK
  5
82AE
330
82AC
100
AcDbEntity
  8
0
100
AcDbBlockEnd
  0
BLOCK
  5
82DB
330
82DA
100
AcDbEntity
  8
0
100
AcDbBlockBegin
  2
*D77
 70
     1
 10
0.0
 20
0.0
 30
0.0
  3
*D77
  1

  0
LINE
  5
83D6
330
82DA
100
AcDbEntity
  8
标注
370
    -2
100
AcDbLine
 10
523.557511366951
 20
530.2267333767527
 30
0.0
 11
515.827611795938
 21
524.9664312349826
 31
0.0
  0
MTEXT
  5
83D7
330
82DA
100
AcDbEntity
  8
标注
100
AcDbMText
 10
542.0017773002363
 20
554.7488377801396
 30
0.0
 40
0.65
 41
0.0
 71
     5
 72
     1
  1
\A1;R10"
 11
0.8267289952493545
 21
0.5626003629700154
 31
0.0
 73
     1
 44
1.0
  0
SOLID
  5
83D8
330
82DA
100
AcDbEntity
  8
标注
100
AcDbTrace
 10
515.766663423283
 20
525.0559935428013
 30
0.0
 11
515.8885601685931
 21
524.8768689271638
 31
0.0
 12
515.290237949026
 22
524.6007409990519
 32
0.0
 13
515.290237949026
 23
524.6007409990519
 33
0.0
  0
POINT
  5
83D9
330
82DA
100
AcDbEntity
  8
DEFPOINTS
 62
     0
100
AcDbPoint
 10
515.290237949026
 20
524.6007409990519
 30
0.0
  0
POINT
  5
83DA
330
82DA
100
AcDbEntity
  8
DEFPOINTS
 62
     0
100
AcDbPoint
 10
523.557511366951
 20
530.2267333767527
 30
0.0
  0
ENDBLK
  5
82DC
330
82DA
100
AcDbEntity
  8
0
100
AcDbBlockEnd
  0
BLOCK
  5
82E5
330
82E4
100
AcDbEntity
  8
0
100
AcDbBlockBegin
  2
*D78
 70
     1
 10
0.0
 20
0.0
 30
0.0
  3
*D78
  1

  0
LINE
  5
8452
330
82E4
100
AcDbEntity
  8
标注
370
    -2
100
AcDbLine
 10
1408.003863621432
 20
240.9267233533003
 30
0.0
 11
1407.563244445018
 21
240.4488585801938
 31
0.0
  0
MTEXT
  5
8453
330
82E4
100
AcDbEntity
  8
标注
100
AcDbMText
 10
1409.278990706894
 20
242.9086478404975
 30
0.0
 40
0.65
 41
0.0
 71
     5
 72
     1
  1
\A1;R3/8"
 11
0.6778756560217574
 21
0.7351765740099939
 31
0.0
 73
     1
 44
1.0
  0
LINE
  5
8454
330
82E4
100
AcDbEntity
  8
标注
370
    -2
100
AcDbLine
 10
1408.711362443621
 20
241.694027143594
 30
0.0
 11
1408.444482797846
 21
241.4045881264067
 31
0.0
  0
SOLID
  5
8455
330
82E4
100
AcDbEntity
  8
标注
100
AcDbTrace
 10
1407.924219492581
 20
241.0001598827026
 30
0.0
 11
1408.083507750283
 21
240.8532868238979
 31
0.0
 12
1408.444482797846
 22
241.4045881264067
 32
0.0
 13
1408.444482797846
 23
241.4045881264067
 33
0.0
  0
POINT
  5
8456
330
82E4
100
AcDbEntity
  8
DEFPOINTS
 62
     0
100
AcDbPoint
 10
1408.444482797846
 20
241.4045881264067
 30
0.0
  0
POINT
  5
8457
330
82E4
100
AcDbEntity
  8
DEFPOINTS
 62
     0
100
AcDbPoint
 10
1408.711362443621
 20
241.694027143594
 30
0.0
  0
ENDBLK
  5
82E6
330
82E4
100
AcDbEntity
  8
0
100
AcDbBlockEnd
  0
ENDSEC
  0
SECTION
  2
ENTITIES
  0
LINE
  5
816E
330
5F6E
100
AcDbEntity
  8
粗实线
100
AcDbLine
 10
1407.317664443619
 20
282.6440848677611
 30
0.0
 11
1408.199552443619
 21
282.6440848677611
 31
0.0
  0
LINE
  5
8170
330
5F6E
100
AcDbEntity
  8
虚线
 48
5.0
100
AcDbLine
 10
1409.27623088502
 20
272.7627406106904
 30
0.0
 11
1415.461187449188
 21
272.565364867811
 31
0.0
  0
LINE
  5
8174
330
5F6E
100
AcDbEntity
  8
粗实线
100
AcDbLine
 10
1427.435734443543
 20
282.6440848677611
 30
0.0
 11
1428.19951244354
 21
282.6440848677611
 31
0.0
  0
LINE
  5
8175
330
5F6E
100
AcDbEntity
  8
0
100
AcDbLine
 10
1408.199552443619
 20
282.6440848677611
 30
0.0
 11
1427.435734443543
 21
282.6440848677611
 31
0.0
  0
LINE
  5
8176
330
5F6E
100
AcDbEntity
  8
虚线
 48
5.0
100
AcDbLine
 10
1415.534183443588
 20
272.5653648677965
 30
0.0
 11
1420.101103443574
 21
272.5653648677965
 31
0.0
  0
ARC
  5
8177
330
5F6E
100
AcDbEntity
  8
虚线
 48
5.0
100
AcDbCircle
 10
1415.461187449188
 20
272.4472548678011
 30
0.0
 40
0.1181099999995276
100
AcDbArc
 50
26.56505106331614
 51
89.99999998974208
  0
ARC
  5
8178
330
5F6E
100
AcDbEntity
  8
虚线
 48
5.0
100
AcDbCircle
 10
1420.174099437974
 20
272.4472548678011
 30
0.0
 40
0.1181099999995276
100
AcDbArc
 50
90.0
 51
153.4349486763819
  0
ARC
  5
8179
330
5F6E
100
AcDbEntity
  8
虚线
 48
5.0
100
AcDbCircle
 10
1415.68879144079
 20
272.3881998678107
 30
0.0
 40
0.0590549999997638
100
AcDbArc
 50
206.5650516552477
 51
269.9999999470561
  0
ARC
  5
817A
330
5F6E
100
AcDbEntity
  8
虚线
 48
5.0
100
AcDbCircle
 10
1419.946495446372
 20
272.3881998678107
 30
0.0
 40
0.0590549999997638
100
AcDbArc
 50
270.000000052944
 51
333.434947776054
  0
LINE
  5
817B
330
5F6E
100
AcDbEntity
  8
虚线
 48
5.0
100
AcDbLine
 10
1419.999315844123
 20
272.3617896689384
 30
0.0
 11
1420.068458642442
 21
272.5000752655892
 31
0.0
  0
LINE
  5
817C
330
5F6E
100
AcDbEntity
  8
虚线
 48
5.0
100
AcDbLine
 10
1415.68879144079
 20
272.3291448678058
 30
0.0
 11
1416.045993443588
 21
272.3291448678058
 31
0.0
  0
LINE
  5
817D
330
5F6E
100
AcDbEntity
  8
虚线
 48
5.0
100
AcDbLine
 10
1419.589293443572
 20
272.2700898678009
 30
0.0
 11
1419.589293443572
 21
272.3291448678058
 31
0.0
  0
LINE
  5
817E
330
5F6E
100
AcDbEntity
  8
虚线
 48
5.0
100
AcDbLine
 10
1415.635971043039
 20
272.3617896689384
 30
0.0
 11
1415.566828244721
 21
272.5000752655892
 31
0.0
  0
LINE
  5
817F
330
5F6E
100
AcDbEntity
  8
虚线
 48
5.0
100
AcDbLine
 10
1416.045993443588
 20
272.2700898678009
 30
0.0
 11
1416.045993443588
 21
272.3291448678058
 31
0.0
  0
LINE
  5
8180
330
5F6E
100
AcDbEntity
  8
虚线
 48
5.0
100
AcDbLine
 10
1419.589293443572
 20
272.3291448678058
 30
0.0
 11
1419.946495446372
 21
272.3291448678058
 31
0.0
  0
LINE
  5
8181
330
5F6E
100
AcDbEntity
  8
虚线
 48
5.0
100
AcDbLine
 10
1416.045993443588
 20
272.3291448678058
 30
0.0
 11
1419.589293443572
 21
272.3291448678058
 31
0.0
  0
LINE
  5
8182
330
5F6E
100
AcDbEntity
  8
粗实线
100
AcDbLine
 10
1415.583150645272
 20
272.3353794700662
 30
0.0
 11
1415.514007846954
 21
272.4736650667024
 31
0.0
  0
ARC
  5
8183
330
5F6E
100
AcDbEntity
  8
粗实线
100
AcDbCircle
 10
1415.461187449188
 20
272.4472548678011
 30
0.0
 40
0.0590549999997638
100
AcDbArc
 50
26.56505106331614
 51
89.99999998974208
  0
LINE
  5
8184
330
5F6E
100
AcDbEntity
  8
粗实线
100
AcDbLine
 10
1409.220727928353
 20
272.7041757934461
 30
0.0
 11
1415.461187449188
 21
272.5063098678061
 31
0.0
  0
ARC
  5
8186
330
5F6E
100
AcDbEntity
  8
粗实线
100
AcDbCircle
 10
1415.68879144079
 20
272.3881998678107
 30
0.0
 40
0.1181099999995276
100
AcDbArc
 50
206.5650516552477
 51
269.9999999470561
  0
LINE
  5
8187
330
5F6E
100
AcDbEntity
  8
粗实线
100
AcDbLine
 10
1415.68879144079
 20
272.2700898678009
 30
0.0
 11
1416.045993443588
 21
272.2700898678009
 31
0.0
  0
LINE
  5
8188
330
5F6E
100
AcDbEntity
  8
粗实线
100
AcDbLine
 10
1416.045993443588
 20
272.2700898678009
 30
0.0
 11
1419.589293443572
 21
272.2700898678009
 31
0.0
  0
LINE
  5
8189
330
5F6E
100
AcDbEntity
  8
粗实线
100
AcDbLine
 10
1419.589293443572
 20
272.2700898678009
 30
0.0
 11
1419.946495446372
 21
272.2700898678009
 31
0.0
  0
ARC
  5
818A
330
5F6E
100
AcDbEntity
  8
粗实线
100
AcDbCircle
 10
1419.946495446372
 20
272.3881998678107
 30
0.0
 40
0.1181099999995276
100
AcDbArc
 50
270.000000052944
 51
333.434947776054
  0
LINE
  5
818B
330
5F6E
100
AcDbEntity
  8
粗实线
100
AcDbLine
 10
1420.05213624189
 20
272.3353794700662
 30
0.0
 11
1420.121279040207
 21
272.4736650667024
 31
0.0
  0
ARC
  5
818C
330
5F6E
100
AcDbEntity
  8
粗实线
100
AcDbCircle
 10
1420.174099437974
 20
272.4472548678011
 30
0.0
 40
0.0590549999997638
100
AcDbArc
 50
90.0
 51
153.4349486763819
  0
LINE
  5
818F
330
5F6E
100
AcDbEntity
  8
粗实线
100
AcDbLine
 10
1427.435734443543
 20
282.5850298677561
 30
0.0
 11
1428.19951244354
 21
282.5850298677561
 31
0.0
  0
LINE
  5
8190
330
5F6E
100
AcDbEntity
  8
粗实线
100
AcDbLine
 10
1407.317664443619
 20
282.5850298677561
 30
0.0
 11
1408.199552443619
 21
282.5850298677561
 31
0.0
  0
LINE
  5
8192
330
5F6E
100
AcDbEntity
  8
粗实线
100
AcDbLine
 10
1407.317664443619
 20
282.6440848677611
 30
0.0
 11
1407.317664443619
 21
282.5850298677561
 31
0.0
  0
LINE
  5
8197
330
5F6E
100
AcDbEntity
  8
虚线
 48
5.0
100
AcDbLine
 10
1426.359056002144
 20
272.7627406107036
 30
0.0
 11
1420.174099437959
 21
272.565364867811
 31
0.0
  0
LINE
  5
8198
330
5F6E
100
AcDbEntity
  8
粗实线
100
AcDbLine
 10
1426.414558958811
 20
272.7041757934596
 30
0.0
 11
1420.174099437959
 21
272.5063098678061
 31
0.0
  0
LINE
  5
8199
330
5F6E
100
AcDbEntity
  8
粗实线
100
AcDbLine
 10
1439.317600443498
 20
282.6440848677611
 30
0.0
 11
1438.435712443498
 21
282.6440848677611
 31
0.0
  0
LINE
  5
819C
330
5F6E
100
AcDbEntity
  8
虚线
 48
5.0
100
AcDbLine
 10
1437.472797803939
 20
274.6227623291029
 30
0.0
 11
1435.674068437909
 21
274.5653608678016
 31
0.0
  0
LINE
  5
819E
330
5F6E
100
AcDbEntity
  8
粗实线
100
AcDbLine
 10
1438.435712443498
 20
282.6440848677611
 30
0.0
 11
1428.19951244354
 21
282.6440848677611
 31
0.0
  0
LINE
  5
819F
330
5F6E
100
AcDbEntity
  8
虚线
 48
5.0
100
AcDbLine
 10
1435.601072443508
 20
274.5653608678016
 30
0.0
 11
1431.03415244353
 21
274.5653608678016
 31
0.0
  0
ARC
  5
81A0
330
5F6E
100
AcDbEntity
  8
虚线
 48
5.0
100
AcDbCircle
 10
1435.674068437909
 20
274.4472508677918
 30
0.0
 40
0.1181099999995276
100
AcDbArc
 50
90.00000001025789
 51
153.4349489366839
  0
ARC
  5
81A1
330
5F6E
100
AcDbEntity
  8
虚线
 48
5.0
100
AcDbCircle
 10
1430.961156449123
 20
274.4472508677918
 30
0.0
 40
0.1181099999995276
100
AcDbArc
 50
26.56505132361806
 51
90.0
  0
ARC
  5
81A2
330
5F6E
100
AcDbEntity
  8
虚线
 48
5.0
100
AcDbCircle
 10
1435.446464446306
 20
274.3881958678013
 30
0.0
 40
0.0590549999997638
100
AcDbArc
 50
270.000000052944
 51
333.4349483447523
  0
ARC
  5
81A3
330
5F6E
100
AcDbEntity
  8
虚线
 48
5.0
100
AcDbCircle
 10
1431.188760440725
 20
274.3881958678013
 30
0.0
 40
0.0590549999997638
100
AcDbArc
 50
206.565052223946
 51
269.9999999470561
  0
LINE
  5
81A4
330
5F6E
100
AcDbEntity
  8
虚线
 48
5.0
100
AcDbLine
 10
1431.135940042973
 20
274.3617856689291
 30
0.0
 11
1431.066797244654
 21
274.5000712655799
 31
0.0
  0
LINE
  5
81A5
330
5F6E
100
AcDbEntity
  8
虚线
 48
5.0
100
AcDbLine
 10
1435.446464446306
 20
274.3291408677965
 30
0.0
 11
1435.089262443508
 21
274.3291408677965
 31
0.0
  0
LINE
  5
81A6
330
5F6E
100
AcDbEntity
  8
虚线
 48
5.0
100
AcDbLine
 10
1431.545962443524
 20
274.2700858677915
 30
0.0
 11
1431.545962443524
 21
274.3291408677965
 31
0.0
  0
LINE
  5
81A7
330
5F6E
100
AcDbEntity
  8
虚线
 48
5.0
100
AcDbLine
 10
1435.499284844058
 20
274.3617856689291
 30
0.0
 11
1435.568427642384
 21
274.5000712655799
 31
0.0
  0
LINE
  5
81A8
330
5F6E
100
AcDbEntity
  8
虚线
 48
5.0
100
AcDbLine
 10
1435.089262443514
 20
274.2700858677915
 30
0.0
 11
1435.089262443514
 21
274.3291408677965
 31
0.0
  0
LINE
  5
81A9
330
5F6E
100
AcDbEntity
  8
虚线
 48
5.0
100
AcDbLine
 10
1431.545962443524
 20
274.3291408677965
 30
0.0
 11
1431.188760440725
 21
274.3291408677965
 31
0.0
  0
LINE
  5
81AA
330
5F6E
100
AcDbEntity
  8
虚线
 48
5.0
100
AcDbLine
 10
1435.089262443514
 20
274.3291408677965
 30
0.0
 11
1431.545962443524
 21
274.3291408677965
 31
0.0
  0
LINE
  5
81AB
330
5F6E
100
AcDbEntity
  8
粗实线
100
AcDbLine
 10
1435.552105241824
 20
274.3353754700569
 30
0.0
 11
1435.621248040143
 21
274.4736610666931
 31
0.0
  0
ARC
  5
81AC
330
5F6E
100
AcDbEntity
  8
粗实线
100
AcDbCircle
 10
1435.674068437909
 20
274.4472508677918
 30
0.0
 40
0.0590549999997638
100
AcDbArc
 50
90.00000001025789
 51
153.4349489366839
  0
LINE
  5
81AD
330
5F6E
100
AcDbEntity
  8
粗实线
100
AcDbLine
 10
1437.528355938669
 20
274.5650996651994
 30
0.0
 11
1435.674068437909
 21
274.5063058677966
 31
0.0
  0
ARC
  5
81AE
330
5F6E
100
AcDbEntity
  8
粗实线
100
AcDbCircle
 10
1435.446464446306
 20
274.3881958678013
 30
0.0
 40
0.1181099999995276
100
AcDbArc
 50
270.000000052944
 51
333.4349483447523
  0
LINE
  5
81AF
330
5F6E
100
AcDbEntity
  8
粗实线
100
AcDbLine
 10
1435.446464446306
 20
274.2700858677915
 30
0.0
 11
1435.089262443508
 21
274.2700858677915
 31
0.0
  0
LINE
  5
81B0
330
5F6E
100
AcDbEntity
  8
粗实线
100
AcDbLine
 10
1435.089262443514
 20
274.2700858677915
 30
0.0
 11
1431.545962443524
 21
274.2700858677915
 31
0.0
  0
LINE
  5
81B1
330
5F6E
100
AcDbEntity
  8
粗实线
100
AcDbLine
 10
1431.545962443524
 20
274.2700858677915
 30
0.0
 11
1431.188760440725
 21
274.2700858677915
 31
0.0
  0
ARC
  5
81B2
330
5F6E
100
AcDbEntity
  8
粗实线
100
AcDbCircle
 10
1431.188760440725
 20
274.3881958678013
 30
0.0
 40
0.1181099999995276
100
AcDbArc
 50
206.565052223946
 51
269.9999999470561
  0
LINE
  5
81B3
330
5F6E
100
AcDbEntity
  8
粗实线
100
AcDbLine
 10
1431.083119645207
 20
274.3353754700569
 30
0.0
 11
1431.013976846889
 21
274.4736610666931
 31
0.0
  0
ARC
  5
81B4
330
5F6E
100
AcDbEntity
  8
粗实线
100
AcDbCircle
 10
1430.961156449123
 20
274.4472508677918
 30
0.0
 40
0.0590549999997638
100
AcDbArc
 50
26.56505132361806
 51
90.0
  0
LINE
  5
81B6
330
5F6E
100
AcDbEntity
  8
粗实线
100
AcDbLine
 10
1439.317600443498
 20
282.5850298677561
 30
0.0
 11
1438.435712443498
 21
282.5850298677561
 31
0.0
  0
LINE
  5
81B9
330
5F6E
100
AcDbEntity
  8
粗实线
100
AcDbLine
 10
1439.317600443498
 20
282.6440848677611
 30
0.0
 11
1439.317600443498
 21
282.5850298677561
 31
0.0
  0
LINE
  5
81BE
330
5F6E
100
AcDbEntity
  8
虚线
 48
5.0
100
AcDbLine
 10
1429.162427083099
 20
274.6227623291028
 30
0.0
 11
1430.961156449137
 21
274.5653608678016
 31
0.0
  0
LINE
  5
81C0
330
5F6E
100
AcDbEntity
  8
粗实线
100
AcDbLine
 10
1429.106868948369
 20
274.5650996651995
 30
0.0
 11
1430.961156449137
 21
274.5063058677966
 31
0.0
  0
LINE
  5
81C2
330
5F6E
100
AcDbEntity
  8
粗实线
100
AcDbLine
 10
1428.711322443534
 20
256.9065951435212
 30
0.0
 11
1431.71951804997
 21
254.206932419811
 31
0.0
  0
LINE
  5
81C4
330
5F6E
100
AcDbEntity
  8
粗实线
100
AcDbLine
 10
1408.711362443621
 20
256.9065951435212
 30
0.0
 11
1415.818905051706
 21
253.6800842319438
 31
0.0
  0
LINE
  5
81C6
330
5F6E
100
AcDbEntity
  8
粗实线
100
AcDbLine
 10
1408.250733443621
 20
240.3003291435997
 30
0.0
 11
1438.384531443496
 21
240.3003291435997
 31
0.0
  0
LINE
  5
81C7
330
5F6E
100
AcDbEntity
  8
粗实线
100
AcDbLine
 10
1439.317600443498
 20
241.2333981435875
 30
0.0
 11
1439.317600443498
 21
257.3672241435277
 31
0.0
  0
LINE
  5
81C8
330
5F6E
100
AcDbEntity
  8
粗实线
100
AcDbLine
 10
1438.384531443496
 20
240.3003291435997
 30
0.0
 11
1439.317600443498
 21
241.2333981435875
 31
0.0
1001
GENIUS_GENFIL_13
1070
     0
1040
23.7
1040
23.7
1040
0.0
1040
0.0
1002
{
1002
}
1001
GENIUS_GENOBJ-N-CHA_13
1002
{
1000
OWNER
1000
GEN
1002
}
1001
GENIUS_GENODEF_13
1002
{
1000
HIER
1070
     0
1002
}
1002
{
1000
MANEDIT
1070
     0
1002
}
1002
{
1000
NOSEL
1070
     0
1002
}
1002
{
1000
BEHIND
1070
     0
1002
}
1002
{
1000
OTHER
1070
     0
1002
}
1002
{
1000
REACTOR
1002
}
  0
LINE
  5
81C9
330
5F6E
100
AcDbEntity
  8
粗实线
100
AcDbLine
 10
1438.384531443496
 20
258.3002931435155
 30
0.0
 11
1439.317600443498
 21
257.3672241435277
 31
0.0
1001
GENIUS_GENFIL_13
1070
     0
1040
23.7
1040
23.7
1040
0.0
1040
0.0
1002
{
1002
}
1001
GENIUS_GENOBJ-N-CHA_13
1002
{
1000
OWNER
1000
GEN
1002
}
1001
GENIUS_GENODEF_13
1002
{
1000
HIER
1070
     0
1002
}
1002
{
1000
MANEDIT
1070
     0
1002
}
1002
{
1000
NOSEL
1070
     0
1002
}
1002
{
1000
BEHIND
1070
     0
1002
}
1002
{
1000
OTHER
1070
     0
1002
}
1002
{
1000
REACTOR
1002
}
  0
LINE
  5
81CA
330
5F6E
100
AcDbEntity
  8
粗实线
100
AcDbLine
 10
1407.317664443627
 20
257.3672241435277
 30
0.0
 11
1407.317664443627
 21
241.2333981435875
 31
0.0
  0
LINE
  5
81CB
330
5F6E
100
AcDbEntity
  8
粗实线
100
AcDbLine
 10
1408.250733443621
 20
240.3003291435997
 30
0.0
 11
1407.317664443627
 21
241.2333981435875
 31
0.0
1001
GENIUS_GENFIL_13
1070
     0
1040
23.7
1040
23.7
1040
0.0
1040
0.0
1002
{
1002
}
1001
GENIUS_GENODEF_13
1002
{
1000
HIER
1070
     0
1002
}
1002
{
1000
MANEDIT
1070
     0
1002
}
1002
{
1000
NOSEL
1070
     0
1002
}
1002
{
1000
BEHIND
1070
     0
1002
}
1002
{
1000
OTHER
1070
     0
1002
}
1002
{
1000
REACTOR
1002
}
1001
GENIUS_GENOBJ-N-CHA_13
1002
{
1000
OWNER
1000
GEN
1002
}
  0
LINE
  5
81CC
330
5F6E
100
AcDbEntity
  8
粗实线
100
AcDbLine
 10
1438.384531443496
 20
258.3002931435155
 30
0.0
 11
1408.250733443621
 21
258.3002931435155
 31
0.0
  0
LINE
  5
81CD
330
5F6E
100
AcDbEntity
  8
粗实线
100
AcDbLine
 10
1407.317664443627
 20
257.3672241435277
 30
0.0
 11
1408.250733443621
 21
258.3002931435155
 31
0.0
1001
GENIUS_GENFIL_13
1070
     0
1040
23.7
1040
23.7
1040
0.0
1040
0.0
1002
{
1002
}
1001
GENIUS_GENODEF_13
1002
{
1000
HIER
1070
     0
1002
}
1002
{
1000
MANEDIT
1070
     0
1002
}
1002
{
1000
NOSEL
1070
     0
1002
}
1002
{
1000
BEHIND
1070
     0
1002
}
1002
{
1000
OTHER
1070
     0
1002
}
1002
{
1000
REACTOR
1002
}
1001
GENIUS_GENOBJ-N-CHA_13
1002
{
1000
OWNER
1000
GEN
1002
}
  0
LINE
  5
81CE
330
5F6E
100
AcDbEntity
  8
粗实线
100
AcDbLine
 10
1408.317662443621
 20
256.9065951435212
 30
0.0
 11
1408.317662443621
 21
241.6940271435939
 31
0.0
  0
ARC
  5
81CF
330
5F6E
100
AcDbEntity
  8
粗实线
100
AcDbCircle
 10
1408.711362443621
 20
241.6940271435939
 30
0.0
 40
0.3936999999984252
100
AcDbArc
 50
180.0
 51
270.0
  0
LINE
  5
81D0
330
5F6E
100
AcDbEntity
  8
粗实线
100
AcDbLine
 10
1408.711362443621
 20
241.300327143595
 30
0.0
 11
1426.923924443541
 21
241.300327143595
 31
0.0
  0
LINE
  5
81D1
330
5F6E
100
AcDbEntity
  8
粗实线
100
AcDbLine
 10
1426.923924443541
 20
257.3002951435201
 30
0.0
 11
1408.711362443621
 21
257.3002951435201
 31
0.0
  0
ARC
  5
81D2
330
5F6E
100
AcDbEntity
  8
粗实线
100
AcDbCircle
 10
1408.711362443621
 20
256.9065951435212
 30
0.0
 40
0.3936999999984252
100
AcDbArc
 50
90.0
 51
180.0
  0
LINE
  5
81D3
330
5F6E
100
AcDbEntity
  8
粗实线
100
AcDbLine
 10
1427.31762444354
 20
241.6940271435939
 30
0.0
 11
1427.31762444354
 21
256.9065951435212
 31
0.0
  0
ARC
  5
81D4
330
5F6E
100
AcDbEntity
  8
粗实线
100
AcDbCircle
 10
1426.923924443541
 20
241.6940271435939
 30
0.0
 40
0.3936999999984252
100
AcDbArc
 50
270.0
 51
0.0
  0
ARC
  5
81D5
330
5F6E
100
AcDbEntity
  8
粗实线
100
AcDbCircle
 10
1426.923924443541
 20
256.9065951435212
 30
0.0
 40
0.3936999999984252
100
AcDbArc
 50
0.0
 51
90.0
  0
LINE
  5
81D6
330
5F6E
100
AcDbEntity
  8
粗实线
100
AcDbLine
 10
1428.317622443536
 20
256.9065951435212
 30
0.0
 11
1428.317622443536
 21
241.6940271435939
 31
0.0
  0
ARC
  5
81D7
330
5F6E
100
AcDbEntity
  8
粗实线
100
AcDbCircle
 10
1428.711322443534
 20
241.6940271435939
 30
0.0
 40
0.3936999999984252
100
AcDbArc
 50
180.0
 51
270.0
  0
LINE
  5
81D8
330
5F6E
100
AcDbEntity
  8
粗实线
100
AcDbLine
 10
1428.711322443534
 20
241.300327143595
 30
0.0
 11
1437.923902443504
 21
241.300327143595
 31
0.0
  0
LINE
  5
81D9
330
5F6E
100
AcDbEntity
  8
粗实线
100
AcDbLine
 10
1437.923902443504
 20
257.3002951435201
 30
0.0
 11
1428.711322443534
 21
257.3002951435201
 31
0.0
  0
ARC
  5
81DA
330
5F6E
100
AcDbEntity
  8
粗实线
100
AcDbCircle
 10
1428.711322443534
 20
256.9065951435212
 30
0.0
 40
0.3936999999984252
100
AcDbArc
 50
90.0
 51
180.0
  0
LINE
  5
81DB
330
5F6E
100
AcDbEntity
  8
粗实线
100
AcDbLine
 10
1438.317602443495
 20
241.6940271435939
 30
0.0
 11
1438.317602443504
 21
256.9065951435212
 31
0.0
  0
ARC
  5
81DC
330
5F6E
100
AcDbEntity
  8
粗实线
100
AcDbCircle
 10
1437.923902443504
 20
241.6940271435939
 30
0.0
 40
0.3936999999984252
100
AcDbArc
 50
270.0
 51
0.0
  0
ARC
  5
81DD
330
5F6E
100
AcDbEntity
  8
粗实线
100
AcDbCircle
 10
1437.923902443504
 20
256.9065951435212
 30
0.0
 40
0.3936999999984252
100
AcDbArc
 50
0.0
 51
90.0
  0
LINE
  5
81DE
330
5F6E
100
AcDbEntity
  8
粗实线
100
AcDbLine
 10
1419.36199617974
 20
250.8938828004516
 30
0.0
 11
1426.923924443541
 21
241.6940271435939
 31
0.0
  0
LINE
  5
81DF
330
5F6E
100
AcDbEntity
  8
粗实线
100
AcDbLine
 10
1426.923924443541
 20
256.9065951435212
 30
0.0
 11
1419.816381835461
 21
253.6800842319465
 31
0.0
  0
LINE
  5
81E0
330
5F6E
100
AcDbEntity
  8
粗实线
100
AcDbLine
 10
1437.923902443504
 20
256.9065951435212
 30
0.0
 11
1434.915706837068
 21
254.206932419811
 31
0.0
  0
LINE
  5
81E1
330
5F6E
100
AcDbEntity
  8
粗实线
100
AcDbLine
 10
1437.923902443504
 20
241.6940271435939
 30
0.0
 11
1434.263572350466
 21
250.4975902904284
 31
0.0
  0
LINE
  5
81E2
330
5F6E
100
AcDbEntity
  8
粗实线
100
AcDbLine
 10
1428.711322443534
 20
241.6940271435939
 30
0.0
 11
1432.371652536579
 21
250.4975902904253
 31
0.0
  0
LINE
  5
81E3
330
5F6E
100
AcDbEntity
  8
0
100
AcDbLine
 10
1416.273290707424
 20
250.8938828004551
 30
0.0
 11
1408.711362443621
 21
241.6940271435939
 31
0.0
  0
CIRCLE
  5
81E4
330
5F6E
100
AcDbEntity
  8
0
100
AcDbCircle
 10
1417.817643443584
 20
252.5758947498394
 30
0.0
 40
2.165349999991338
  0
CIRCLE
  5
81E5
330
5F6E
100
AcDbEntity
  8
0
100
AcDbCircle
 10
1417.817643443584
 20
252.5758947498394
 30
0.0
 40
1.771649999992912
  0
CIRCLE
  5
81E6
330
5F6E
100
AcDbEntity
  8
0
100
AcDbCircle
 10
1433.31761244352
 20
252.5758947498394
 30
0.0
 40
2.165349999991338
  0
CIRCLE
  5
81E7
330
5F6E
100
AcDbEntity
  8
0
100
AcDbCircle
 10
1433.31761244352
 20
252.5758947498394
 30
0.0
 40
1.771649999992912
  0
LINE
  5
81E8
330
5F6E
100
AcDbEntity
  8
粗实线
100
AcDbLine
 10
1408.199552443619
 20
282.5850298677561
 30
0.0
 11
1438.435712443498
 21
282.5850298677561
 31
0.0
  0
LINE
  5
81E9
330
5F6E
100
AcDbEntity
  8
粗实线
100
AcDbLine
 10
1415.461187449188
 20
272.5063098678061
 30
0.0
 11
1420.174099437974
 21
272.5063098678061
 31
0.0
  0
LINE
  5
81EA
330
5F6E
100
AcDbEntity
  8
粗实线
100
AcDbLine
 10
1430.961156449123
 20
274.5063058677966
 30
0.0
 11
1435.674068437909
 21
274.5063058677966
 31
0.0
  0
LINE
  5
81EB
330
5F6E
100
AcDbEntity
  8
中心线
  6
Continuous
 62
     1
100
AcDbLine
 10
1438.3963424435
 20
210.4376127188436
 30
0.0
 11
1438.3963424435
 21
225.6501807187854
 31
0.0
  0
ARC
  5
81EC
330
5F6E
100
AcDbEntity
  8
中心线
  6
Continuous
 62
     1
100
AcDbCircle
 10
1437.923902443504
 20
210.4376127188436
 30
0.0
 40
0.4724399999981105
100
AcDbArc
 50
270.0
 51
0.0
  0
ARC
  5
81ED
330
5F6E
100
AcDbEntity
  8
中心线
  6
Continuous
 62
     1
100
AcDbCircle
 10
1437.923902443504
 20
225.6501807187854
 30
0.0
 40
0.4724399999981105
100
AcDbArc
 50
0.0
 51
90.0
  0
LINE
  5
81EE
330
5F6E
100
AcDbEntity
  8
中心线
  6
Continuous
 62
     1
100
AcDbLine
 10
1408.711362443621
 20
209.9651727188477
 30
0.0
 11
1437.923902443504
 21
209.9651727188477
 31
0.0
  0
LINE
  5
81EF
330
5F6E
100
AcDbEntity
  8
中心线
  6
Continuous
 62
     1
100
AcDbLine
 10
1437.923902443504
 20
226.1226207187812
 30
0.0
 11
1408.711362443621
 21
226.1226207187812
 31
0.0
  0
ARC
  5
81F0
330
5F6E
100
AcDbEntity
  8
中心线
  6
Continuous
 62
     1
100
AcDbCircle
 10
1408.711362443621
 20
225.6501807187854
 30
0.0
 40
0.4724399999981105
100
AcDbArc
 50
90.0
 51
180.0
  0
LINE
  5
81F1
330
5F6E
100
AcDbEntity
  8
中心线
  6
Continuous
 62
     1
100
AcDbLine
 10
1408.238922443617
 20
225.6501807187854
 30
0.0
 11
1408.238922443617
 21
210.4376127188436
 31
0.0
  0
ARC
  5
81F2
330
5F6E
100
AcDbEntity
  8
中心线
  6
Continuous
 62
     1
100
AcDbCircle
 10
1408.711362443621
 20
210.4376127188436
 30
0.0
 40
0.4724399999981105
100
AcDbArc
 50
180.0
 51
270.0
  0
TEXT
  5
81F3
330
5F6E
100
AcDbEntity
  8
标注
100
AcDbText
 10
1418.288675813951
 20
268.6923830529817
 30
0.0
 40
0.7874015748000001
  1
FRONT VIEW
100
AcDbText
  0
TEXT
  5
81F4
330
5F6E
100
AcDbEntity
  8
标注
100
AcDbText
 10
1416.614805303556
 20
232.4179215526389
 30
0.0
 40
0.7874015748000001
  1
OVERHEAD VIEW
100
AcDbText
  0
TEXT
  5
81F5
330
5F6E
100
AcDbEntity
  8
标注
100
AcDbText
 10
1423.412380741659
 20
203.7701020611055
 30
0.0
 40
0.7874015748000001
  1
 CUTOUT
100
AcDbText
  0
LINE
  5
81F6
330
5F6E
100
AcDbEntity
  8
中心线
  6
Continuous
 62
     1
100
AcDbLine
 10
1415.746974661124
 20
204.0233035284093
 30
0.0
 11
1421.963779665182
 21
204.0233035284093
 31
0.0
  0
DIMENSION
  5
81F7
330
5F6E
100
AcDbEntity
  8
标注
100
AcDbDimension
  2
*D68
 10
1438.3963424435
 20
207.6010956963168
 30
0.0
 11
1423.317632443558
 21
207.6010956963168
 31
0.0
 70
    32
 71
     5
 42
30.15741999988336
  3
副本STANDARD
100
AcDbAlignedDimension
 13
1408.238922443617
 23
210.4376127188436
 33
0.0
 14
1438.3963424435
 24
210.4376127188436
 34
0.0
100
AcDbRotatedDimension
  0
DIMENSION
  5
8205
330
5F6E
100
AcDbEntity
  8
标注
100
AcDbDimension
  2
*D69
 10
1440.801663012399
 20
226.1226207187812
 30
0.0
 11
1440.801663012399
 21
218.0438967188147
 31
0.0
 70
    32
 71
     5
 42
16.15744799993348
  3
副本STANDARD
100
AcDbAlignedDimension
 13
1437.923902443504
 23
209.9651727188477
 33
0.0
 14
1437.923902443504
 24
226.1226207187812
 34
0.0
 50
90.0
100
AcDbRotatedDimension
  0
DIMENSION
  5
821D
330
5F6E
100
AcDbEntity
  8
标注
100
AcDbDimension
  2
*D70
 10
1427.31762444354
 20
238.3509280552166
 30
0.0
 11
1417.817643443581
 21
238.3509280552166
 31
0.0
 70
    32
 71
     5
 42
18.99996199991823
  3
副本STANDARD
100
AcDbAlignedDimension
 13
1408.317662443621
 23
241.6940271435939
 33
0.0
 14
1427.31762444354
 24
241.6940271435939
 34
0.0
100
AcDbRotatedDimension
  0
DIMENSION
  5
822B
330
5F6E
100
AcDbEntity
  8
标注
100
AcDbDimension
  2
*D71
 10
1438.317602443502
 20
238.3509280552166
 30
0.0
 11
1433.317612443518
 21
238.3509280552166
 31
0.0
 70
    32
 71
     5
 42
9.999979999967763
  3
副本STANDARD
100
AcDbAlignedDimension
 13
1428.317622443535
 23
241.6940271435939
 33
0.0
 14
1438.317602443502
 24
241.6940271435939
 34
0.0
100
AcDbRotatedDimension
  0
DIMENSION
  5
8239
330
5F6E
100
AcDbEntity
  8
标注
100
AcDbDimension
  2
*D72
 10
1441.223317744897
 20
257.3002951435201
 30
0.0
 11
1441.223317744897
 21
249.3003111435578
 31
0.0
 70
    32
 71
     5
 42
15.99996799992516
  3
副本STANDARD
100
AcDbAlignedDimension
 13
1437.923902443504
 23
241.300327143595
 33
0.0
 14
1437.923902443504
 24
257.3002951435201
 34
0.0
 50
90.0
100
AcDbRotatedDimension
  0
DIMENSION
  5
8247
330
5F6E
100
AcDbEntity
  8
标注
100
AcDbDimension
  2
*D73
 10
1443.003246537099
 20
258.3002931435155
 30
0.0
 11
1443.003246537099
 21
249.3003111435578
 31
0.0
 70
    32
 71
     5
 42
17.99996399991585
  3
副本STANDARD
100
AcDbAlignedDimension
 13
1438.317602443502
 23
240.3003291435997
 33
0.0
 14
1438.317602443502
 24
258.3002931435155
 34
0.0
 50
90.0
100
AcDbRotatedDimension
  0
DIMENSION
  5
8255
330
5F6E
100
AcDbEntity
  8
标注
100
AcDbDimension
  2
*D74
 10
1439.317600443498
 20
236.4444401009526
 30
0.0
 11
1423.317632443563
 21
236.4444401009526
 31
0.0
 70
    32
 71
     5
 42
31.9999359998717
  3
副本STANDARD
100
AcDbAlignedDimension
 13
1407.317664443627
 23
241.2333981435875
 33
0.0
 14
1439.317600443498
 24
241.300327143595
 34
0.0
100
AcDbRotatedDimension
  0
DIMENSION
  5
8263
330
5F6E
100
AcDbEntity
  8
标注
100
AcDbDimension
  2
*D75
 10
1405.309862330499
 20
272.6903648677959
 30
0.0
 11
1405.309862330499
 21
277.6672248677787
 31
0.0
 70
    32
 71
     5
 42
9.953719999965187
  3
副本STANDARD
100
AcDbAlignedDimension
 13
1407.317664443619
 23
282.6440848677611
 33
0.0
 14
1407.743130605004
 24
272.6903648677959
 34
0.0
 50
90.0
100
AcDbRotatedDimension
  0
DIMENSION
  5
82AB
330
5F6E
100
AcDbEntity
  8
标注
100
AcDbDimension
  2
*D76
 10
1440.813697676607
 20
274.6903608677907
 30
0.0
 11
1440.813697676607
 21
278.6672228677761
 31
0.0
 70
    32
 71
     5
 42
7.953723999970349
  3
副本STANDARD
100
AcDbAlignedDimension
 13
1439.317600443498
 23
282.6440848677611
 33
0.0
 14
1438.87337003041
 24
274.6903608677907
 34
0.0
 50
90.0
100
AcDbRotatedDimension
  0
DIMENSION
  5
82E3
330
5F6E
100
AcDbEntity
  8
标注
100
AcDbDimension
  2
*D78
 10
1408.711362443621
 20
241.694027143594
 30
0.0
 11
1409.278990706894
 21
242.9086478404975
 31
0.0
 70
   164
 71
     5
 42
0.3936999999991713
  3
副本STANDARD
100
AcDbRadialDimension
 15
1408.444482797846
 25
241.4045881264067
 35
0.0
 40
0.0
1001
ACAD
1000
DSTYLE
1002
{
1070
   288
1070
     1
1002
}
1001
ACAD_DSTYLE_DIMRADIAL_EXTENSION
1070
   387
1070
     1
1070
   388
1040
3.141592653589792
1070
   390
1040
4.712388980384688
  0
CIRCLE
  5
83E0
330
5F6E
100
AcDbEntity
  8
粗实线
100
AcDbCircle
 10
1433.317612443519
 20
252.5758947498394
 30
0.0
 40
2.283459999990865
  0
CIRCLE
  5
83E1
330
5F6E
100
AcDbEntity
  8
粗实线
100
AcDbCircle
 10
1417.817643443584
 20
252.5758947498394
 30
0.0
 40
2.283459999990865
  0
LINE
  5
83E8
330
5F6E
100
AcDbEntity
  8
标注
100
AcDbLine
 10
1408.317662443621
 20
282.5850298677561
 30
0.0
 11
1408.895821905588
 21
273.1322062224657
 31
0.0
  0
LINE
  5
83E9
330
5F6E
100
AcDbEntity
  8
标注
100
AcDbLine
 10
1408.258717475211
 20
282.5814246390434
 30
0.0
 11
1408.840238252615
 21
273.0736439721376
 31
0.0
  0
ARC
  5
83EA
330
5F6E
100
AcDbEntity
  8
标注
100
AcDbCircle
 10
1409.288788361658
 20
273.1562410805501
 30
0.0
 40
0.3937007874
100
AcDbArc
 50
183.5000000000114
 51
268.1721843395805
  0
ARC
  5
83EB
330
5F6E
100
AcDbEntity
  8
标注
100
AcDbCircle
 10
1409.233204708685
 20
273.097678830222
 30
0.0
 40
0.3937007874
100
AcDbArc
 50
183.5000000000114
 51
268.1839341163957
  0
LINE
  5
83EC
330
5F6E
100
AcDbEntity
  8
标注
100
AcDbLine
 10
1427.31762444354
 20
282.5850298677561
 30
0.0
 11
1426.739464981575
 21
273.1322062224788
 31
0.0
  0
LINE
  5
83ED
330
5F6E
100
AcDbEntity
  8
标注
100
AcDbLine
 10
1427.376569411951
 20
282.5814246390434
 30
0.0
 11
1426.795048634548
 21
273.0736439721511
 31
0.0
  0
ARC
  5
83EE
330
5F6E
100
AcDbEntity
  8
标注
100
AcDbCircle
 10
1426.346498525505
 20
273.1562410805633
 30
0.0
 40
0.3937007874
100
AcDbArc
 50
271.8278156604195
 51
356.4999999999886
  0
ARC
  5
83EF
330
5F6E
100
AcDbEntity
  8
标注
100
AcDbCircle
 10
1426.402082178478
 20
273.0976788302356
 30
0.0
 40
0.3937007874
100
AcDbArc
 50
271.8160658836043
 51
356.4999999999886
  0
LINE
  5
83F0
330
5F6E
100
AcDbEntity
  8
标注
100
AcDbLine
 10
1428.317622443536
 20
282.5850298677561
 30
0.0
 11
1428.782018103667
 21
274.992227940878
 31
0.0
  0
LINE
  5
83F1
330
5F6E
100
AcDbEntity
  8
标注
100
AcDbLine
 10
1428.258677475125
 20
282.5814246390434
 30
0.0
 11
1428.726379272632
 21
274.9345678438909
 31
0.0
  0
ARC
  5
83F2
330
5F6E
100
AcDbEntity
  8
标注
100
AcDbCircle
 10
1429.174984559737
 20
275.0162627989626
 30
0.0
 40
0.3937007874
100
AcDbArc
 50
183.5000000000114
 51
268.1721843395805
  0
ARC
  5
83F3
330
5F6E
100
AcDbEntity
  8
标注
100
AcDbCircle
 10
1429.119345728702
 20
274.9586027019754
 30
0.0
 40
0.3937007874
100
AcDbArc
 50
183.5000000000114
 51
268.1839341163957
  0
LINE
  5
83F4
330
5F6E
100
AcDbEntity
  8
标注
100
AcDbLine
 10
1438.317602443502
 20
282.5850298677561
 30
0.0
 11
1437.853206783371
 21
274.9922279408782
 31
0.0
  0
LINE
  5
83F5
330
5F6E
100
AcDbEntity
  8
标注
100
AcDbLine
 10
1438.376547411913
 20
282.5814246390434
 30
0.0
 11
1437.908845614406
 21
274.9345678438909
 31
0.0
  0
ARC
  5
83F6
330
5F6E
100
AcDbEntity
  8
标注
100
AcDbCircle
 10
1437.460240327301
 20
275.0162627989626
 30
0.0
 40
0.3937007874
100
AcDbArc
 50
271.8278156604195
 51
356.4999999999886
  0
ARC
  5
83F7
330
5F6E
100
AcDbEntity
  8
标注
100
AcDbCircle
 10
1437.515879158335
 20
274.9586027019754
 30
0.0
 40
0.3937007874
100
AcDbArc
 50
271.8160658836043
 51
356.4999999999886
  0
ENDSEC
  0
SECTION
  2
OBJECTS
  0
DICTIONARY
  5
5F06
330
0
100
AcDbDictionary
281
     1
  3
ACAD_2007HEADERVARS_RT
350
8463
  3
ACAD_COLOR
350
5F64
  3
ACAD_GROUP
350
5F07
  3
ACAD_LAYOUT
350
5F63
  3
ACAD_MATERIAL
350
5F0A
  3
ACAD_MLEADERSTYLE
350
5F67
  3
ACAD_MLINESTYLE
350
5F60
  3
ACAD_PLOTSETTINGS
350
5F62
  3
ACAD_PLOTSTYLENAME
350
5F08
  3
ACAD_SCALELIST
350
5F34
  3
ACAD_TABLESTYLE
350
5F65
  3
ACAD_VISUALSTYLE
350
5F23
  3
ACDB_RECOMPOSE_DATA
350
836D
  3
AcDbVariableDictionary
350
6102
  3
lxx_dict
350
60F2
  0
DICTIONARY
  5
61B7
330
5EFC
100
AcDbDictionary
280
     1
281
     1
  3
ACAD_LAYERSTATES
360
61B8
  0
DICTIONARY
  5
60F4
330
5F56
100
AcDbDictionary
280
     1
281
     1
  3
ADSK_XREC_LAYER_RECONCILED
360
60F5
  0
DICTIONARY
  5
60F6
330
5F72
100
AcDbDictionary
280
     1
281
     1
  3
ADSK_XREC_LAYER_RECONCILED
360
60F7
  0
DICTIONARY
  5
60F8
330
5F7D
100
AcDbDictionary
280
     1
281
     1
  3
ADSK_XREC_LAYER_RECONCILED
360
60F9
  0
DICTIONARY
  5
60FA
330
5F7E
100
AcDbDictionary
280
     1
281
     1
  3
ADSK_XREC_LAYER_RECONCILED
360
60FB
  0
DICTIONARY
  5
7BC2
330
7BC1
100
AcDbDictionary
280
     1
281
     1
  0
DICTIONARY
  5
7D7C
330
7D7B
100
AcDbDictionary
280
     1
281
     1
  0
DICTIONARY
  5
7F4C
330
7F4B
100
AcDbDictionary
280
     1
281
     1
  0
DICTIONARY
  5
654F
330
5F6E
100
AcDbDictionary
280
     1
281
     1
  3
ACAD_SORTENTS
360
6550
  0
DICTIONARY
  5
8463
102
{ACAD_REACTORS
330
5F06
102
}
330
5F06
100
AcDbDictionary
281
     1
  3
DIMFXL
350
8464
  3
DIMLTEX1
350
8466
  3
DIMLTEX2
350
8467
  3
DIMLTYPE
350
8465
  0
DICTIONARY
  5
5F64
102
{ACAD_REACTORS
330
5F06
102
}
330
5F06
100
AcDbDictionary
281
     1
  0
DICTIONARY
  5
5F07
102
{ACAD_REACTORS
330
5F06
102
}
330
5F06
100
AcDbDictionary
281
     1
  0
DICTIONARY
  5
5F63
102
{ACAD_REACTORS
330
5F06
102
}
330
5F06
100
AcDbDictionary
281
     1
  3
Model
350
5F71
  3
布局1
350
5F6D
  0
DICTIONARY
  5
5F0A
102
{ACAD_REACTORS
330
5F06
102
}
330
5F06
100
AcDbDictionary
281
     1
  3
ByBlock
350
5F13
  3
ByLayer
350
5F0B
  3
Global
350
5F1B
  0
DICTIONARY
  5
5F67
102
{ACAD_REACTORS
330
5F06
102
}
330
5F06
100
AcDbDictionary
281
     1
  3
Standard
350
5F68
  0
DICTIONARY
  5
5F60
102
{ACAD_REACTORS
330
5F06
102
}
330
5F06
100
AcDbDictionary
281
     1
  3
Standard
350
5F61
  0
DICTIONARY
  5
5F62
102
{ACAD_REACTORS
330
5F06
102
}
330
5F06
100
AcDbDictionary
281
     1
  0
ACDBDICTIONARYWDFLT
  5
5F08
102
{ACAD_REACTORS
330
5F06
102
}
330
5F06
100
AcDbDictionary
281
     1
  3
Normal
350
5F09
100
AcDbDictionaryWithDefault
340
5F09
  0
DICTIONARY
  5
5F34
102
{ACAD_REACTORS
330
5F06
102
}
330
5F06
100
AcDbDictionary
281
     1
  3
A0
350
5F35
  3
A1
350
5F36
  3
A2
350
5F37
  3
A3
350
5F38
  3
A4
350
5F39
  3
A5
350
5F3A
  3
A6
350
5F3B
  3
A7
350
5F3C
  3
A8
350
5F3D
  3
A9
350
5F3E
  3
B0
350
5F3F
  3
B1
350
5F40
  3
B2
350
5F41
  3
B3
350
5F42
  3
B4
350
5F43
  3
B5
350
5F44
  3
B6
350
5F45
  3
B7
350
5F46
  3
B8
350
5F47
  3
B9
350
5F48
  3
C0
350
5F49
  3
C1
350
5F4A
  3
C2
350
5F4B
  3
C3
350
5F4C
  3
C4
350
5F4D
  3
C5
350
5F4E
  3
C6
350
5F4F
  3
C7
350
5F50
  3
C8
350
5F51
  3
C9
350
5F52
  3
D0
350
5F53
  3
D1
350
5F54
  3
D2
350
5F55
  0
DICTIONARY
  5
5F65
102
{ACAD_REACTORS
330
5F06
102
}
330
5F06
100
AcDbDictionary
281
     1
  3
Standard
350
5F66
  0
DICTIONARY
  5
5F23
102
{ACAD_REACTORS
330
5F06
102
}
330
5F06
100
AcDbDictionary
281
     1
  3
2dWireframe
350
5F29
  3
3D Hidden
350
5F2B
  3
3dWireframe
350
5F2A
  3
Basic
350
5F28
  3
Brighten
350
5F2F
  3
ColorChange
350
5F33
  3
Conceptual
350
5F2C
  3
Dim
350
5F2E
  3
Facepattern
350
5F32
  3
Flat
350
5F24
  3
FlatWithEdges
350
5F25
  3
Gouraud
350
5F26
  3
GouraudWithEdges
350
5F27
  3
Linepattern
350
5F31
  3
Realistic
350
5F2D
  3
Thicken
350
5F30
  0
XRECORD
  5
836D
102
{ACAD_REACTORS
330
5F06
102
}
330
5F06
100
AcDbXrecord
280
     1
 90
        1
330
5F66
  0
DICTIONARY
  5
6102
102
{ACAD_REACTORS
330
5F06
102
}
330
5F06
100
AcDbDictionary
281
     1
  3
CANNOSCALE
350
6105
  3
CMLEADERSTYLE
350
6104
  3
CTABLESTYLE
350
6103
  3
DIMASSOC
350
6108
  3
INDEXCTL
350
6107
  3
SORTENTS
350
6106
  0
DICTIONARY
  5
60F2
102
{ACAD_REACTORS
330
5F06
102
}
330
5F06
100
AcDbDictionary
281
     1
  3
lxx_dimth
350
60F3
  0
DICTIONARY
  5
61B8
102
{ACAD_REACTORS
330
61B7
102
}
330
61B7
100
AcDbDictionary
281
     1
  0
XRECORD
  5
60F5
102
{ACAD_REACTORS
330
60F4
102
}
330
60F4
100
AcDbXrecord
280
     1
290
     1
  0
XRECORD
  5
60F7
102
{ACAD_REACTORS
330
60F6
102
}
330
60F6
100
AcDbXrecord
280
     1
290
     1
  0
XRECORD
  5
60F9
102
{ACAD_REACTORS
330
60F8
102
}
330
60F8
100
AcDbXrecord
280
     1
290
     1
  0
XRECORD
  5
60FB
102
{ACAD_REACTORS
330
60FA
102
}
330
60FA
100
AcDbXrecord
280
     1
290
     1
  0
SORTENTSTABLE
  5
6550
102
{ACAD_REACTORS
330
654F
102
}
330
654F
100
AcDbSortentsTable
330
5F6E
331
81AB
  5
81AB
331
8174
  5
8174
331
81B3
  5
81B3
331
817C
  5
817C
331
8184
  5
8184
331
81E2
  5
81E4
331
81EA
  5
81EC
331
81CB
  5
81CD
331
818C
  5
818C
331
81D3
  5
81D5
331
819C
  5
819C
331
81DB
  5
81DD
331
81A4
  5
81A4
331
8247
  5
8263
331
81F0
  5
81F2
331
83EA
  5
83E9
331
83F2
  5
83F1
331
81AC
  5
81AC
331
81B4
  5
81B4
331
8175
  5
8175
331
817D
  5
817D
331
81C4
  5
81C5
331
81E3
  5
81E5
331
81EB
  5
81ED
331
81CC
  5
81CE
331
81D4
  5
81D6
331
81DC
  5
81DE
331
81A5
  5
81A5
331
81F1
  5
81F3
331
83EB
  5
83EB
331
83F3
  5
83F3
331
816E
  5
816E
331
81AD
  5
81AD
331
8176
  5
8176
331
817E
  5
817E
331
8186
  5
8186
331
8239
  5
8255
331
81E4
  5
81E6
331
81EC
  5
81EE
331
81CD
  5
81CF
331
81D5
  5
81D7
331
819E
  5
819E
331
81DD
  5
81DF
331
81A6
  5
81A6
331
81F2
  5
81F4
331
83EC
  5
83EC
331
83F4
  5
83F4
331
81AE
  5
81AE
331
81B6
  5
81B6
331
8177
  5
8177
331
817F
  5
817F
331
81BE
  5
81BE
331
8187
  5
8187
331
81C6
  5
81C8
331
81E5
  5
81E7
331
81ED
  5
81EF
331
818F
  5
818F
331
81CE
  5
81D0
331
81D6
  5
81D8
331
8197
  5
8197
331
81DE
  5
81E0
331
819F
  5
819F
331
81A7
  5
81A7
331
81F3
  5
81F5
331
83ED
  5
83EE
331
83F5
  5
83F6
331
8170
  5
8170
331
81AF
  5
81AF
331
8178
  5
8178
331
8180
  5
8180
331
81C7
  5
81C9
331
822B
  5
8247
331
81E6
  5
81E8
331
81EE
  5
81F0
331
8188
  5
8188
331
8190
  5
8190
331
81CF
  5
81D1
331
8198
  5
8198
331
81D7
  5
81D9
331
81A0
  5
81A0
331
81DF
  5
81E1
331
8263
  5
82D9
331
81F4
  5
81F6
331
83EE
  5
83ED
331
83F6
  5
83F5
331
81A8
  5
81A8
331
81B0
  5
81B0
331
8179
  5
8179
331
8181
  5
8181
331
81C0
  5
81C0
331
81E7
  5
81E9
331
81EF
  5
81F1
331
8189
  5
8189
331
81C8
  5
81CA
331
81D0
  5
81D2
331
81D8
  5
81DA
331
8199
  5
8199
331
81A1
  5
81A1
331
81F5
  5
81F7
331
83EF
  5
83EF
331
83F7
  5
83F7
331
81A9
  5
81A9
331
81B1
  5
81B1
331
817A
  5
817A
331
81B9
  5
81B9
331
8182
  5
8182
331
8205
  5
822B
331
821D
  5
8239
331
81E0
  5
81E2
331
81E8
  5
81EA
331
83E0
  5
81C4
331
81C9
  5
81CB
331
818A
  5
818A
331
8192
  5
8192
331
81D1
  5
81D3
331
81D9
  5
81DB
331
81A2
  5
81A2
331
8255
  5
82AB
331
81F6
  5
8205
331
83E8
  5
83E8
331
83F0
  5
83F0
331
81AA
  5
81AA
331
81B2
  5
81B2
331
817B
  5
817B
331
8183
  5
8183
331
81C2
  5
81C2
331
82AB
  5
82E3
331
82E3
  5
83E1
331
81E1
  5
81E3
331
81E9
  5
81EB
331
83E1
  5
81C7
331
818B
  5
818B
331
81CA
  5
81CC
331
81D2
  5
81D4
331
81DA
  5
81DC
331
81A3
  5
81A3
331
81F7
  5
821D
331
83E9
  5
83EA
331
83F1
  5
83F2
  0
XRECORD
  5
8464
102
{ACAD_REACTORS
330
8463
102
}
330
8463
100
AcDbXrecord
280
     1
 40
8.0
  0
XRECORD
  5
8466
102
{ACAD_REACTORS
330
8463
102
}
330
8463
100
AcDbXrecord
280
     1
340
5F5E
  0
XRECORD
  5
8467
102
{ACAD_REACTORS
330
8463
102
}
330
8463
100
AcDbXrecord
280
     1
340
5F5E
  0
XRECORD
  5
8465
102
{ACAD_REACTORS
330
8463
102
}
330
8463
100
AcDbXrecord
280
     1
340
5F5E
  0
LAYOUT
  5
5F71
102
{ACAD_REACTORS
330
5F63
102
}
330
5F63
100
AcDbPlotSettings
  1

  2
\\192.168.1.64\Canon LBP2900
  4
A4
  6

 40
5.873749732971191
 41
6.805061340332031
 42
5.873748779296875
 43
4.857757568359375
 44
209.9733276367186
 45
296.9259948730469
 46
0.0
 47
0.0
 48
0.0
 49
0.0
140
0.0
141
0.0
142
1.0
143
22.50920977447151
 70
 11952
 72
     0
 73
     1
 74
     0
  7

 75
     0
147
0.0444262597407633
 76
     0
 77
     2
 78
   300
148
-26332.96073918523
149
-1147.872668404557
100
AcDbLayout
  1
Model
 70
     1
 71
     0
 10
0.0
 20
0.0
 11
12.0
 21
9.0
 12
0.0
 22
0.0
 32
0.0
 14
0.0
 24
0.0
 34
0.0
 15
0.0
 25
0.0
 35
0.0
146
0.0
 13
0.0
 23
0.0
 33
0.0
 16
1.0
 26
0.0
 36
0.0
 17
0.0
 27
1.0
 37
0.0
 76
     0
330
5F6E
331
5F73
1001
ACAD_PSEXT
1000
\\192.168.1.64\Canon LBP2900
1000
Canon LBP2900
1000
\\192.168.1.64
1000

1070
     0
  0
LAYOUT
  5
5F6D
102
{ACAD_REACTORS
330
5F63
102
}
330
5F63
100
AcDbPlotSettings
  1

  2
\\192.168.1.64\Canon LBP2900
  4

  6

 40
0.0
 41
0.0
 42
0.0
 43
0.0
 44
0.0
 45
0.0
 46
0.0
 47
0.0
 48
0.0
 49
0.0
140
0.0
141
0.0
142
1.0
143
1.0
 70
   688
 72
     0
 73
     0
 74
     5
  7

 75
    16
147
1.0
 76
     0
 77
     2
 78
   300
148
0.0
149
0.0
100
AcDbLayout
  1
布局1
 70
     1
 71
     1
 10
0.0
 20
0.0
 11
12.0
 21
9.0
 12
0.0
 22
0.0
 32
0.0
 14
1.000000000000000E+20
 24
1.000000000000000E+20
 34
1.000000000000000E+20
 15
-1.000000000000000E+20
 25
-1.000000000000000E+20
 35
-1.000000000000000E+20
146
0.0
 13
0.0
 23
0.0
 33
0.0
 16
1.0
 26
0.0
 36
0.0
 17
0.0
 27
1.0
 37
0.0
 76
     0
330
5F6A
  0
MATERIAL
  5
5F13
102
{ACAD_XDICTIONARY
360
5F14
102
}
102
{ACAD_REACTORS
330
5F0A
102
}
330
5F0A
100
AcDbMaterial
  1
ByBlock
 72
     0
 43
0.0208333333333333
 43
0.0
 43
0.0
 43
0.0
 43
0.0
 43
0.0208333333333333
 43
0.0
 43
0.0
 43
0.0
 43
0.0
 43
1.0
 43
0.0
 43
0.0
 43
0.0
 43
0.0
 43
1.0
 77
     0
 47
0.0208333333333333
 47
0.0
 47
0.0
 47
0.0
 47
0.0
 47
0.0208333333333333
 47
0.0
 47
0.0
 47
0.0
 47
0.0
 47
1.0
 47
0.0
 47
0.0
 47
0.0
 47
0.0
 47
1.0
171
     0
 49
0.0208333333333333
 49
0.0
 49
0.0
 49
0.0
 49
0.0
 49
0.0208333333333333
 49
0.0
 49
0.0
 49
0.0
 49
0.0
 49
1.0
 49
0.0
 49
0.0
 49
0.0
 49
0.0
 49
1.0
175
     0
142
0.0208333333333333
142
0.0
142
0.0
142
0.0
142
0.0
142
0.0208333333333333
142
0.0
142
0.0
142
0.0
142
0.0
142
1.0
142
0.0
142
0.0
142
0.0
142
0.0
142
1.0
179
     0
144
0.0208333333333333
144
0.0
144
0.0
144
0.0
144
0.0
144
0.0208333333333333
144
0.0
144
0.0
144
0.0
144
0.0
144
1.0
144
0.0
144
0.0
144
0.0
144
0.0
144
1.0
147
0.0208333333333333
147
0.0
147
0.0
147
0.0
147
0.0
147
0.0208333333333333
147
0.0
147
0.0
147
0.0
147
0.0
147
1.0
147
0.0
147
0.0
147
0.0
147
0.0
147
1.0
  0
MATERIAL
  5
5F0B
102
{ACAD_XDICTIONARY
360
5F0C
102
}
102
{ACAD_REACTORS
330
5F0A
102
}
330
5F0A
100
AcDbMaterial
  1
ByLayer
 72
     0
 43
0.0208333333333333
 43
0.0
 43
0.0
 43
0.0
 43
0.0
 43
0.0208333333333333
 43
0.0
 43
0.0
 43
0.0
 43
0.0
 43
1.0
 43
0.0
 43
0.0
 43
0.0
 43
0.0
 43
1.0
 77
     0
 47
0.0208333333333333
 47
0.0
 47
0.0
 47
0.0
 47
0.0
 47
0.0208333333333333
 47
0.0
 47
0.0
 47
0.0
 47
0.0
 47
1.0
 47
0.0
 47
0.0
 47
0.0
 47
0.0
 47
1.0
171
     0
 49
0.0208333333333333
 49
0.0
 49
0.0
 49
0.0
 49
0.0
 49
0.0208333333333333
 49
0.0
 49
0.0
 49
0.0
 49
0.0
 49
1.0
 49
0.0
 49
0.0
 49
0.0
 49
0.0
 49
1.0
175
     0
142
0.0208333333333333
142
0.0
142
0.0
142
0.0
142
0.0
142
0.0208333333333333
142
0.0
142
0.0
142
0.0
142
0.0
142
1.0
142
0.0
142
0.0
142
0.0
142
0.0
142
1.0
179
     0
144
0.0208333333333333
144
0.0
144
0.0
144
0.0
144
0.0
144
0.0208333333333333
144
0.0
144
0.0
144
0.0
144
0.0
144
1.0
144
0.0
144
0.0
144
0.0
144
0.0
144
1.0
147
0.0208333333333333
147
0.0
147
0.0
147
0.0
147
0.0
147
0.0208333333333333
147
0.0
147
0.0
147
0.0
147
0.0
147
1.0
147
0.0
147
0.0
147
0.0
147
0.0
147
1.0
  0
MATERIAL
  5
5F1B
102
{ACAD_XDICTIONARY
360
5F1C
102
}
102
{ACAD_REACTORS
330
5F0A
102
}
330
5F0A
100
AcDbMaterial
  1
Global
 72
     0
 43
0.0208333333333333
 43
0.0
 43
0.0
 43
0.0
 43
0.0
 43
0.0208333333333333
 43
0.0
 43
0.0
 43
0.0
 43
0.0
 43
1.0
 43
0.0
 43
0.0
 43
0.0
 43
0.0
 43
1.0
 77
     0
 47
0.0208333333333333
 47
0.0
 47
0.0
 47
0.0
 47
0.0
 47
0.0208333333333333
 47
0.0
 47
0.0
 47
0.0
 47
0.0
 47
1.0
 47
0.0
 47
0.0
 47
0.0
 47
0.0
 47
1.0
171
     0
 49
0.0208333333333333
 49
0.0
 49
0.0
 49
0.0
 49
0.0
 49
0.0208333333333333
 49
0.0
 49
0.0
 49
0.0
 49
0.0
 49
1.0
 49
0.0
 49
0.0
 49
0.0
 49
0.0
 49
1.0
175
     0
142
0.0208333333333333
142
0.0
142
0.0
142
0.0
142
0.0
142
0.0208333333333333
142
0.0
142
0.0
142
0.0
142
0.0
142
1.0
142
0.0
142
0.0
142
0.0
142
0.0
142
1.0
179
     0
144
0.0208333333333333
144
0.0
144
0.0
144
0.0
144
0.0
144
0.0208333333333333
144
0.0
144
0.0
144
0.0
144
0.0
144
1.0
144
0.0
144
0.0
144
0.0
144
0.0
144
1.0
147
0.0208333333333333
147
0.0
147
0.0
147
0.0
147
0.0
147
0.0208333333333333
147
0.0
147
0.0
147
0.0
147
0.0
147
1.0
147
0.0
147
0.0
147
0.0
147
0.0
147
1.0
  0
ACAD_PROXY_OBJECT
  5
5F68
102
{ACAD_REACTORS
330
5F67
102
}
330
5F67
100
AcDbProxyObject
 90
      499
 91
      505
 95
  1310743
 70
     1
100
AcDbMLeaderStyle
170
     2
171
     1
172
     0
 90
        2
 40
0.0
 41
0.0
173
     1
 91
-1056964608
340
5F5C
 92
       -2
290
     1
 42
0.09
291
     1
 43
0.36
  3
Standard
 44
0.18
300

342
5F57
174
     1
178
     6
175
     1
176
     0
 93
-1056964608
 45
0.18
292
     0
297
     0
 46
0.18
 94
-1056964608
 47
1.0
 49
1.0
140
1.0
293
     1
141
0.0
294
     1
177
     0
142
1.0
295
     0
296
     0
143
0.125
1001
ACAD_MLEADERVER
1070
     2
  0
MLINESTYLE
  5
5F61
102
{ACAD_REACTORS
330
5F60
102
}
330
5F60
100
AcDbMlineStyle
  2
STANDARD
 70
     0
  3

 62
   256
 51
90.0
 52
90.0
 71
     2
 49
0.5
 62
   256
  6
BYLAYER
 49
-0.5
 62
   256
  6
BYLAYER
  0
ACDBPLACEHOLDER
  5
5F09
102
{ACAD_REACTORS
330
5F08
102
}
330
5F08
  0
ACAD_PROXY_OBJECT
  5
5F35
102
{ACAD_REACTORS
330
5F34
102
}
330
5F34
100
AcDbProxyObject
 90
      499
 91
      503
 95
  1310743
 70
     1
100
AcDbScale
 70
     0
300
1:1
140
1.0
141
1.0
290
     1
  0
ACAD_PROXY_OBJECT
  5
5F36
102
{ACAD_REACTORS
330
5F34
102
}
330
5F34
100
AcDbProxyObject
 90
      499
 91
      503
 95
  1310743
 70
     1
100
AcDbScale
 70
     0
300
1:2
140
1.0
141
2.0
290
     0
  0
ACAD_PROXY_OBJECT
  5
5F37
102
{ACAD_REACTORS
330
5F34
102
}
330
5F34
100
AcDbProxyObject
 90
      499
 91
      503
 95
  1310743
 70
     1
100
AcDbScale
 70
     0
300
1:4
140
1.0
141
4.0
290
     0
  0
ACAD_PROXY_OBJECT
  5
5F38
102
{ACAD_REACTORS
330
5F34
102
}
330
5F34
100
AcDbProxyObject
 90
      499
 91
      503
 95
  1310743
 70
     1
100
AcDbScale
 70
     0
300
1:5
140
1.0
141
5.0
290
     0
  0
ACAD_PROXY_OBJECT
  5
5F39
102
{ACAD_REACTORS
330
5F34
102
}
330
5F34
100
AcDbProxyObject
 90
      499
 91
      503
 95
  1310743
 70
     1
100
AcDbScale
 70
     0
300
1:8
140
1.0
141
8.0
290
     0
  0
ACAD_PROXY_OBJECT
  5
5F3A
102
{ACAD_REACTORS
330
5F34
102
}
330
5F34
100
AcDbProxyObject
 90
      499
 91
      503
 95
  1310743
 70
     1
100
AcDbScale
 70
     0
300
1:10
140
1.0
141
10.0
290
     0
  0
ACAD_PROXY_OBJECT
  5
5F3B
102
{ACAD_REACTORS
330
5F34
102
}
330
5F34
100
AcDbProxyObject
 90
      499
 91
      503
 95
  1310743
 70
     1
100
AcDbScale
 70
     0
300
1:16
140
1.0
141
16.0
290
     0
  0
ACAD_PROXY_OBJECT
  5
5F3C
102
{ACAD_REACTORS
330
5F34
102
}
330
5F34
100
AcDbProxyObject
 90
      499
 91
      503
 95
  1310743
 70
     1
100
AcDbScale
 70
     0
300
1:20
140
1.0
141
20.0
290
     0
  0
ACAD_PROXY_OBJECT
  5
5F3D
102
{ACAD_REACTORS
330
5F34
102
}
330
5F34
100
AcDbProxyObject
 90
      499
 91
      503
 95
  1310743
 70
     1
100
AcDbScale
 70
     0
300
1:30
140
1.0
141
30.0
290
     0
  0
ACAD_PROXY_OBJECT
  5
5F3E
102
{ACAD_REACTORS
330
5F34
102
}
330
5F34
100
AcDbProxyObject
 90
      499
 91
      503
 95
  1310743
 70
     1
100
AcDbScale
 70
     0
300
1:40
140
1.0
141
40.0
290
     0
  0
ACAD_PROXY_OBJECT
  5
5F3F
102
{ACAD_REACTORS
330
5F34
102
}
330
5F34
100
AcDbProxyObject
 90
      499
 91
      503
 95
  1310743
 70
     1
100
AcDbScale
 70
     0
300
1:50
140
1.0
141
50.0
290
     0
  0
ACAD_PROXY_OBJECT
  5
5F40
102
{ACAD_REACTORS
330
5F34
102
}
330
5F34
100
AcDbProxyObject
 90
      499
 91
      503
 95
  1310743
 70
     1
100
AcDbScale
 70
     0
300
1:100
140
1.0
141
100.0
290
     0
  0
ACAD_PROXY_OBJECT
  5
5F41
102
{ACAD_REACTORS
330
5F34
102
}
330
5F34
100
AcDbProxyObject
 90
      499
 91
      503
 95
  1310743
 70
     1
100
AcDbScale
 70
     0
300
2:1
140
2.0
141
1.0
290
     0
  0
ACAD_PROXY_OBJECT
  5
5F42
102
{ACAD_REACTORS
330
5F34
102
}
330
5F34
100
AcDbProxyObject
 90
      499
 91
      503
 95
  1310743
 70
     1
100
AcDbScale
 70
     0
300
4:1
140
4.0
141
1.0
290
     0
  0
ACAD_PROXY_OBJECT
  5
5F43
102
{ACAD_REACTORS
330
5F34
102
}
330
5F34
100
AcDbProxyObject
 90
      499
 91
      503
 95
  1310743
 70
     1
100
AcDbScale
 70
     0
300
8:1
140
8.0
141
1.0
290
     0
  0
ACAD_PROXY_OBJECT
  5
5F44
102
{ACAD_REACTORS
330
5F34
102
}
330
5F34
100
AcDbProxyObject
 90
      499
 91
      503
 95
  1310743
 70
     1
100
AcDbScale
 70
     0
300
10:1
140
10.0
141
1.0
290
     0
  0
ACAD_PROXY_OBJECT
  5
5F45
102
{ACAD_REACTORS
330
5F34
102
}
330
5F34
100
AcDbProxyObject
 90
      499
 91
      503
 95
  1310743
 70
     1
100
AcDbScale
 70
     0
300
100:1
140
100.0
141
1.0
290
     0
  0
ACAD_PROXY_OBJECT
  5
5F46
102
{ACAD_REACTORS
330
5F34
102
}
330
5F34
100
AcDbProxyObject
 90
      499
 91
      503
 95
  1310743
 70
     1
100
AcDbScale
 70
     0
300
1/128" = 1'-0"
140
0.0078125
141
12.0
290
     0
  0
ACAD_PROXY_OBJECT
  5
5F47
102
{ACAD_REACTORS
330
5F34
102
}
330
5F34
100
AcDbProxyObject
 90
      499
 91
      503
 95
  1310743
 70
     1
100
AcDbScale
 70
     0
300
1/64" = 1'-0"
140
0.015625
141
12.0
290
     0
  0
ACAD_PROXY_OBJECT
  5
5F48
102
{ACAD_REACTORS
330
5F34
102
}
330
5F34
100
AcDbProxyObject
 90
      499
 91
      503
 95
  1310743
 70
     1
100
AcDbScale
 70
     0
300
1/32" = 1'-0"
140
0.03125
141
12.0
290
     0
  0
ACAD_PROXY_OBJECT
  5
5F49
102
{ACAD_REACTORS
330
5F34
102
}
330
5F34
100
AcDbProxyObject
 90
      499
 91
      503
 95
  1310743
 70
     1
100
AcDbScale
 70
     0
300
1/16" = 1'-0"
140
0.0625
141
12.0
290
     0
  0
ACAD_PROXY_OBJECT
  5
5F4A
102
{ACAD_REACTORS
330
5F34
102
}
330
5F34
100
AcDbProxyObject
 90
      499
 91
      503
 95
  1310743
 70
     1
100
AcDbScale
 70
     0
300
3/32" = 1'-0"
140
0.09375
141
12.0
290
     0
  0
ACAD_PROXY_OBJECT
  5
5F4B
102
{ACAD_REACTORS
330
5F34
102
}
330
5F34
100
AcDbProxyObject
 90
      499
 91
      503
 95
  1310743
 70
     1
100
AcDbScale
 70
     0
300
1/8" = 1'-0"
140
0.125
141
12.0
290
     0
  0
ACAD_PROXY_OBJECT
  5
5F4C
102
{ACAD_REACTORS
330
5F34
102
}
330
5F34
100
AcDbProxyObject
 90
      499
 91
      503
 95
  1310743
 70
     1
100
AcDbScale
 70
     0
300
3/16" = 1'-0"
140
0.1875
141
12.0
290
     0
  0
ACAD_PROXY_OBJECT
  5
5F4D
102
{ACAD_REACTORS
330
5F34
102
}
330
5F34
100
AcDbProxyObject
 90
      499
 91
      503
 95
  1310743
 70
     1
100
AcDbScale
 70
     0
300
1/4" = 1'-0"
140
0.25
141
12.0
290
     0
  0
ACAD_PROXY_OBJECT
  5
5F4E
102
{ACAD_REACTORS
330
5F34
102
}
330
5F34
100
AcDbProxyObject
 90
      499
 91
      503
 95
  1310743
 70
     1
100
AcDbScale
 70
     0
300
3/8" = 1'-0"
140
0.375
141
12.0
290
     0
  0
ACAD_PROXY_OBJECT
  5
5F4F
102
{ACAD_REACTORS
330
5F34
102
}
330
5F34
100
AcDbProxyObject
 90
      499
 91
      503
 95
  1310743
 70
     1
100
AcDbScale
 70
     0
300
1/2" = 1'-0"
140
0.5
141
12.0
290
     0
  0
ACAD_PROXY_OBJECT
  5
5F50
102
{ACAD_REACTORS
330
5F34
102
}
330
5F34
100
AcDbProxyObject
 90
      499
 91
      503
 95
  1310743
 70
     1
100
AcDbScale
 70
     0
300
3/4" = 1'-0"
140
0.75
141
12.0
290
     0
  0
ACAD_PROXY_OBJECT
  5
5F51
102
{ACAD_REACTORS
330
5F34
102
}
330
5F34
100
AcDbProxyObject
 90
      499
 91
      503
 95
  1310743
 70
     1
100
AcDbScale
 70
     0
300
1" = 1'-0"
140
1.0
141
12.0
290
     0
  0
ACAD_PROXY_OBJECT
  5
5F52
102
{ACAD_REACTORS
330
5F34
102
}
330
5F34
100
AcDbProxyObject
 90
      499
 91
      503
 95
  1310743
 70
     1
100
AcDbScale
 70
     0
300
1-1/2" = 1'-0"
140
1.5
141
12.0
290
     0
  0
ACAD_PROXY_OBJECT
  5
5F53
102
{ACAD_REACTORS
330
5F34
102
}
330
5F34
100
AcDbProxyObject
 90
      499
 91
      503
 95
  1310743
 70
     1
100
AcDbScale
 70
     0
300
3" = 1'-0"
140
3.0
141
12.0
290
     0
  0
ACAD_PROXY_OBJECT
  5
5F54
102
{ACAD_REACTORS
330
5F34
102
}
330
5F34
100
AcDbProxyObject
 90
      499
 91
      503
 95
  1310743
 70
     1
100
AcDbScale
 70
     0
300
6" = 1'-0"
140
6.0
141
12.0
290
     0
  0
ACAD_PROXY_OBJECT
  5
5F55
102
{ACAD_REACTORS
330
5F34
102
}
330
5F34
100
AcDbProxyObject
 90
      499
 91
      503
 95
  1310743
 70
     1
100
AcDbScale
 70
     0
300
1'-0" = 1'-0"
140
12.0
141
12.0
290
     0
  0
TABLESTYLE
  5
5F66
102
{ACAD_XDICTIONARY
360
836B
102
}
102
{ACAD_REACTORS
330
5F65
102
}
330
5F65
100
AcDbTableStyle
  3
Standard
 70
     0
 71
     0
 40
0.06
 41
0.06
280
     0
281
     0
  7
STANDARD
140
0.18
170
     2
 62
     0
 63
     7
283
     0
274
    -2
284
     1
 64
     0
275
    -2
285
     1
 65
     0
276
    -2
286
     1
 66
     0
277
    -2
287
     1
 67
     0
278
    -2
288
     1
 68
     0
279
    -2
289
     1
 69
     0
  7
STANDARD
140
0.25
170
     5
 62
     0
 63
     7
283
     0
274
    -2
284
     1
 64
     0
275
    -2
285
     1
 65
     0
276
    -2
286
     1
 66
     0
277
    -2
287
     1
 67
     0
278
    -2
288
     1
 68
     0
279
    -2
289
     1
 69
     0
  7
STANDARD
140
0.18
170
     5
 62
     0
 63
     7
283
     0
274
    -2
284
     1
 64
     0
275
    -2
285
     1
 65
     0
276
    -2
286
     1
 66
     0
277
    -2
287
     1
 67
     0
278
    -2
288
     1
 68
     0
279
    -2
289
     1
 69
     0
  0
VISUALSTYLE
  5
5F29
102
{ACAD_REACTORS
330
5F23
102
}
330
5F23
100
AcDbVisualStyle
  2
2dWireframe
 70
     4
 71
     0
 72
     2
 73
     0
 90
        0
 40
-0.6
 41
-30.0
 62
     5
 63
     7
 74
     1
 91
        4
 64
     7
 65
   257
 75
     1
175
     1
 42
1.0
 92
        0
 66
   257
 43
1.0
 76
     1
 77
     6
 78
     2
 67
     7
 79
     5
170
     0
171
     0
290
     0
174
     0
 93
        1
 44
0.0
173
     0
291
     0
 45
0.0
1001
ACAD
1000
AcDbSavedByObjectVersion
1070
     0
1000
AcDbSavedByObjectVersion
1070
     0
1000
AcDbSavedByObjectVersion
1070
     0
  0
VISUALSTYLE
  5
5F2B
102
{ACAD_REACTORS
330
5F23
102
}
330
5F23
100
AcDbVisualStyle
  2
3D Hidden
 70
     6
 71
     1
 72
     2
 73
     2
 90
        0
 40
-0.6
 41
-30.0
 62
     5
 63
     7
 74
     2
 91
        2
 64
     7
 65
   257
 75
     2
175
     1
 42
40.0
 92
        0
 66
   257
 43
1.0
 76
     1
 77
     6
 78
     2
 67
     7
 79
     3
170
     0
171
     0
290
     0
174
     0
 93
        1
 44
0.0
173
     0
291
     0
 45
0.0
1001
ACAD
1000
AcDbSavedByObjectVersion
1070
     0
1000
AcDbSavedByObjectVersion
1070
     0
1000
AcDbSavedByObjectVersion
1070
     0
  0
VISUALSTYLE
  5
5F2A
102
{ACAD_REACTORS
330
5F23
102
}
330
5F23
100
AcDbVisualStyle
  2
3dWireframe
 70
     5
 71
     0
 72
     2
 73
     0
 90
        0
 40
-0.6
 41
-30.0
 62
     5
 63
     7
 74
     1
 91
        4
 64
     7
 65
   257
 75
     1
175
     1
 42
1.0
 92
        0
 66
   257
 43
1.0
 76
     1
 77
     6
 78
     2
 67
     7
 79
     5
170
     0
171
     0
290
     0
174
     0
 93
        1
 44
0.0
173
     0
291
     0
 45
0.0
1001
ACAD
1000
AcDbSavedByObjectVersion
1070
     0
1000
AcDbSavedByObjectVersion
1070
     0
1000
AcDbSavedByObjectVersion
1070
     0
  0
VISUALSTYLE
  5
5F28
102
{ACAD_REACTORS
330
5F23
102
}
330
5F23
100
AcDbVisualStyle
  2
Basic
 70
     7
 71
     1
 72
     0
 73
     1
 90
        0
 40
-0.6
 41
-30.0
 62
     5
 63
     7
 74
     0
 91
        4
 64
     7
 65
   257
 75
     1
175
     1
 42
1.0
 92
        8
 66
     7
 43
1.0
 76
     1
 77
     6
 78
     2
 67
     7
 79
     5
170
     0
171
     0
290
     0
174
     0
 93
        1
 44
0.0
173
     0
291
     1
 45
0.0
1001
ACAD
1000
AcDbSavedByObjectVersion
1070
     0
1000
AcDbSavedByObjectVersion
1070
     0
1000
AcDbSavedByObjectVersion
1070
     0
  0
VISUALSTYLE
  5
5F2F
102
{ACAD_REACTORS
330
5F23
102
}
330
5F23
100
AcDbVisualStyle
  2
Brighten
 70
    12
 71
     2
 72
     2
 73
     0
 90
        0
 40
-0.6
 41
-30.0
 62
     5
 63
     7
 74
     1
 91
        4
 64
     7
 65
   257
 75
     1
175
     1
 42
1.0
 92
        8
 66
     7
 43
1.0
 76
     1
 77
     6
 78
     2
 67
     7
 79
     5
170
     0
171
     0
290
     0
174
     0
 93
        1
 44
50.0
173
     0
291
     1
 45
0.0
1001
ACAD
1000
AcDbSavedByObjectVersion
1070
     0
1000
AcDbSavedByObjectVersion
1070
     0
1000
AcDbSavedByObjectVersion
1070
     0
  0
VISUALSTYLE
  5
5F33
102
{ACAD_REACTORS
330
5F23
102
}
330
5F23
100
AcDbVisualStyle
  2
ColorChange
 70
    16
 71
     2
 72
     2
 73
     3
 90
        0
 40
-0.6
 41
-30.0
 62
     5
 63
     8
 74
     1
 91
        4
 64
     7
 65
   257
 75
     1
175
     1
 42
1.0
 92
        8
 66
     8
 43
1.0
 76
     1
 77
     6
 78
     2
 67
     7
 79
     5
170
     0
171
     0
290
     0
174
     0
 93
        1
 44
0.0
173
     0
291
     1
 45
0.0
1001
ACAD
1000
AcDbSavedByObjectVersion
1070
     0
1000
AcDbSavedByObjectVersion
1070
     0
1000
AcDbSavedByObjectVersion
1070
     0
  0
VISUALSTYLE
  5
5F2C
102
{ACAD_REACTORS
330
5F23
102
}
330
5F23
100
AcDbVisualStyle
  2
Conceptual
 70
     9
 71
     3
 72
     2
 73
     0
 90
        0
 40
-0.6
 41
-30.0
 62
     5
 63
     7
 74
     2
 91
        2
 64
     7
 65
   257
 75
     1
175
     1
 42
40.0
 92
        8
 66
     7
 43
1.0
 76
     1
 77
     6
 78
     2
 67
     7
 79
     3
170
     0
171
     0
290
     0
174
     0
 93
        1
 44
0.0
173
     0
291
     0
 45
0.0
1001
ACAD
1000
AcDbSavedByObjectVersion
1070
     0
1000
AcDbSavedByObjectVersion
1070
     0
1000
AcDbSavedByObjectVersion
1070
     0
  0
VISUALSTYLE
  5
5F2E
102
{ACAD_REACTORS
330
5F23
102
}
330
5F23
100
AcDbVisualStyle
  2
Dim
 70
    11
 71
     2
 72
     2
 73
     0
 90
        0
 40
-0.6
 41
-30.0
 62
     5
 63
     7
 74
     1
 91
        4
 64
     7
 65
   257
 75
     1
175
     1
 42
1.0
 92
        8
 66
     7
 43
1.0
 76
     1
 77
     6
 78
     2
 67
     7
 79
     5
170
     0
171
     0
290
     0
174
     0
 93
        1
 44
-50.0
173
     0
291
     1
 45
0.0
1001
ACAD
1000
AcDbSavedByObjectVersion
1070
     0
1000
AcDbSavedByObjectVersion
1070
     0
1000
AcDbSavedByObjectVersion
1070
     0
  0
VISUALSTYLE
  5
5F32
102
{ACAD_REACTORS
330
5F23
102
}
330
5F23
100
AcDbVisualStyle
  2
Facepattern
 70
    15
 71
     2
 72
     2
 73
     0
 90
        0
 40
-0.6
 41
-30.0
 62
     5
 63
     7
 74
     1
 91
        4
 64
     7
 65
   257
 75
     1
175
     1
 42
1.0
 92
        8
 66
     7
 43
1.0
 76
     1
 77
     6
 78
     2
 67
     7
 79
     5
170
     0
171
     0
290
     0
174
     0
 93
        1
 44
0.0
173
     0
291
     1
 45
0.0
1001
ACAD
1000
AcDbSavedByObjectVersion
1070
     0
1000
AcDbSavedByObjectVersion
1070
     0
1000
AcDbSavedByObjectVersion
1070
     0
  0
VISUALSTYLE
  5
5F24
102
{ACAD_REACTORS
330
5F23
102
}
330
5F23
100
AcDbVisualStyle
  2
Flat
 70
     0
 71
     2
 72
     1
 73
     1
 90
        2
 40
-0.6
 41
30.0
 62
     5
 63
     7
 74
     0
 91
        4
 64
     7
 65
   257
 75
     1
175
     1
 42
1.0
 92
        8
 66
     7
 43
1.0
 76
     1
 77
     6
 78
     2
 67
     7
 79
     5
170
     0
171
     0
290
     0
174
     0
 93
       13
 44
0.0
173
     0
291
     1
 45
0.0
1001
ACAD
1000
AcDbSavedByObjectVersion
1070
     0
1000
AcDbSavedByObjectVersion
1070
     0
1000
AcDbSavedByObjectVersion
1070
     0
  0
VISUALSTYLE
  5
5F25
102
{ACAD_REACTORS
330
5F23
102
}
330
5F23
100
AcDbVisualStyle
  2
FlatWithEdges
 70
     1
 71
     2
 72
     1
 73
     1
 90
        2
 40
-0.6
 41
30.0
 62
     5
 63
     7
 74
     1
 91
        4
 64
     7
 65
   257
 75
     1
175
     1
 42
1.0
 92
        0
 66
   257
 43
1.0
 76
     1
 77
     6
 78
     2
 67
     7
 79
     5
170
     0
171
     0
290
     0
174
     0
 93
       13
 44
0.0
173
     0
291
     1
 45
0.0
1001
ACAD
1000
AcDbSavedByObjectVersion
1070
     0
1000
AcDbSavedByObjectVersion
1070
     0
1000
AcDbSavedByObjectVersion
1070
     0
  0
VISUALSTYLE
  5
5F26
102
{ACAD_REACTORS
330
5F23
102
}
330
5F23
100
AcDbVisualStyle
  2
Gouraud
 70
     2
 71
     2
 72
     2
 73
     1
 90
        2
 40
-0.6
 41
30.0
 62
     5
 63
     7
 74
     0
 91
        4
 64
     7
 65
   257
 75
     1
175
     1
 42
1.0
 92
        0
 66
     7
 43
1.0
 76
     1
 77
     6
 78
     2
 67
     7
 79
     5
170
     0
171
     0
290
     0
174
     0
 93
       13
 44
0.0
173
     0
291
     1
 45
0.0
1001
ACAD
1000
AcDbSavedByObjectVersion
1070
     0
1000
AcDbSavedByObjectVersion
1070
     0
1000
AcDbSavedByObjectVersion
1070
     0
  0
VISUALSTYLE
  5
5F27
102
{ACAD_REACTORS
330
5F23
102
}
330
5F23
100
AcDbVisualStyle
  2
GouraudWithEdges
 70
     3
 71
     2
 72
     2
 73
     1
 90
        2
 40
-0.6
 41
30.0
 62
     5
 63
     7
 74
     1
 91
        4
 64
     7
 65
   257
 75
     1
175
     1
 42
1.0
 92
        0
 66
   257
 43
1.0
 76
     1
 77
     6
 78
     2
 67
     7
 79
     5
170
     0
171
     0
290
     0
174
     0
 93
       13
 44
0.0
173
     0
291
     1
 45
0.0
1001
ACAD
1000
AcDbSavedByObjectVersion
1070
     0
1000
AcDbSavedByObjectVersion
1070
     0
1000
AcDbSavedByObjectVersion
1070
     0
  0
VISUALSTYLE
  5
5F31
102
{ACAD_REACTORS
330
5F23
102
}
330
5F23
100
AcDbVisualStyle
  2
Linepattern
 70
    14
 71
     2
 72
     2
 73
     0
 90
        0
 40
-0.6
 41
-30.0
 62
     5
 63
     7
 74
     1
 91
        4
 64
     7
 65
   257
 75
     7
175
     7
 42
1.0
 92
        8
 66
     7
 43
1.0
 76
     1
 77
     6
 78
     2
 67
     7
 79
     5
170
     0
171
     0
290
     0
174
     0
 93
        1
 44
0.0
173
     0
291
     1
 45
0.0
1001
ACAD
1000
AcDbSavedByObjectVersion
1070
     0
1000
AcDbSavedByObjectVersion
1070
     0
1000
AcDbSavedByObjectVersion
1070
     0
  0
VISUALSTYLE
  5
5F2D
102
{ACAD_REACTORS
330
5F23
102
}
330
5F23
100
AcDbVisualStyle
  2
Realistic
 70
     8
 71
     2
 72
     2
 73
     0
 90
        0
 40
-0.6
 41
-30.0
 62
     5
 63
     7
 74
     1
 91
        0
 64
     7
 65
   257
 75
     1
175
     1
 42
1.0
 92
        8
 66
     8
 43
1.0
 76
     1
 77
     6
 78
     2
 67
     7
 79
     5
170
     0
171
     0
290
     0
174
     0
 93
       13
 44
0.0
173
     0
291
     0
 45
0.0
1001
ACAD
1000
AcDbSavedByObjectVersion
1070
     0
1000
AcDbSavedByObjectVersion
1070
     0
1000
AcDbSavedByObjectVersion
1070
     0
  0
VISUALSTYLE
  5
5F30
102
{ACAD_REACTORS
330
5F23
102
}
330
5F23
100
AcDbVisualStyle
  2
Thicken
 70
    13
 71
     2
 72
     2
 73
     0
 90
        0
 40
-0.6
 41
-30.0
 62
     5
 63
     7
 74
     1
 91
        4
 64
     7
 65
   257
 75
     1
175
     1
 42
1.0
 92
       12
 66
     7
 43
1.0
 76
     1
 77
     6
 78
     2
 67
     7
 79
     5
170
     0
171
     0
290
     0
174
     0
 93
        1
 44
0.0
173
     0
291
     1
 45
0.0
1001
ACAD
1000
AcDbSavedByObjectVersion
1070
     0
1000
AcDbSavedByObjectVersion
1070
     0
1000
AcDbSavedByObjectVersion
1070
     0
  0
DICTIONARYVAR
  5
6105
102
{ACAD_REACTORS
330
6102
102
}
330
6102
100
DictionaryVariables
280
     0
  1
1:1
  0
DICTIONARYVAR
  5
6104
102
{ACAD_REACTORS
330
6102
102
}
330
6102
100
DictionaryVariables
280
     0
  1
STANDARD
  0
DICTIONARYVAR
  5
6103
102
{ACAD_REACTORS
330
6102
102
}
330
6102
100
DictionaryVariables
280
     0
  1
STANDARD
  0
DICTIONARYVAR
  5
6108
102
{ACAD_REACTORS
330
6102
102
}
330
6102
100
DictionaryVariables
280
     0
  1
1
  0
DICTIONARYVAR
  5
6107
102
{ACAD_REACTORS
330
6102
102
}
330
6102
100
DictionaryVariables
280
     0
  1
0
  0
DICTIONARYVAR
  5
6106
102
{ACAD_REACTORS
330
6102
102
}
330
6102
100
DictionaryVariables
280
     0
  1
127
  0
VLO-VL
  5
60F3
102
{ACAD_REACTORS
330
60F2
102
}
330
60F2
100
vlo_VL
 90
   -64512
 91
       12
 92
        1
 40
2.5
300
(&VLO-R . 0)
  0
DICTIONARY
  5
5F14
330
5F13
100
AcDbDictionary
280
     1
281
     1
  3
ACAD_XREC_ROUNDTRIP
360
8370
  3
BUMPTILE
360
5F16
  3
DIFFUSETILE
360
5F15
  3
OPACITYTILE
360
5F19
  3
REFLECTIONTILE
360
5F18
  3
REFRACTIONTILE
360
5F1A
  3
SPECULARTILE
360
5F17
  0
DICTIONARY
  5
5F0C
330
5F0B
100
AcDbDictionary
280
     1
281
     1
  3
ACAD_XREC_ROUNDTRIP
360
836F
  3
BUMPTILE
360
5F0E
  3
DIFFUSETILE
360
5F0D
  3
OPACITYTILE
360
5F11
  3
REFLECTIONTILE
360
5F10
  3
REFRACTIONTILE
360
5F12
  3
SPECULARTILE
360
5F0F
  0
DICTIONARY
  5
5F1C
330
5F1B
100
AcDbDictionary
280
     1
281
     1
  3
ACAD_XREC_ROUNDTRIP
360
8371
  3
BUMPTILE
360
5F1E
  3
DIFFUSETILE
360
5F1D
  3
OPACITYTILE
360
5F21
  3
REFLECTIONTILE
360
5F20
  3
REFRACTIONTILE
360
5F22
  3
SPECULARTILE
360
5F1F
  0
DICTIONARY
  5
836B
330
5F66
100
AcDbDictionary
280
     1
281
     1
  3
ACAD_ROUNDTRIP_2008_TABLESTYLE_CELLSTYLEMAP
360
836C
  3
ACAD_XREC_ROUNDTRIP
360
8468
  0
XRECORD
  5
8370
102
{ACAD_REACTORS
330
5F14
102
}
330
5F14
100
AcDbXrecord
280
     1
102
MATERIAL
148
0.0
149
0.0
149
0.0
 93
        0
 94
       63
282
     0
 72
     0
 77
     0
171
     0
175
     0
179
     0
273
     0
  0
XRECORD
  5
5F16
102
{ACAD_REACTORS
330
5F14
102
}
330
5F14
100
AcDbXrecord
280
     1
270
     1
271
     1
  0
XRECORD
  5
5F15
102
{ACAD_REACTORS
330
5F14
102
}
330
5F14
100
AcDbXrecord
280
     1
270
     1
271
     1
  0
XRECORD
  5
5F19
102
{ACAD_REACTORS
330
5F14
102
}
330
5F14
100
AcDbXrecord
280
     1
270
     1
271
     1
  0
XRECORD
  5
5F18
102
{ACAD_REACTORS
330
5F14
102
}
330
5F14
100
AcDbXrecord
280
     1
270
     1
271
     1
  0
XRECORD
  5
5F1A
102
{ACAD_REACTORS
330
5F14
102
}
330
5F14
100
AcDbXrecord
280
     1
270
     1
271
     1
  0
XRECORD
  5
5F17
102
{ACAD_REACTORS
330
5F14
102
}
330
5F14
100
AcDbXrecord
280
     1
270
     1
271
     1
  0
XRECORD
  5
836F
102
{ACAD_REACTORS
330
5F0C
102
}
330
5F0C
100
AcDbXrecord
280
     1
102
MATERIAL
148
0.0
149
0.0
149
0.0
 93
        0
 94
       63
282
     0
 72
     0
 77
     0
171
     0
175
     0
179
     0
273
     0
  0
XRECORD
  5
5F0E
102
{ACAD_REACTORS
330
5F0C
102
}
330
5F0C
100
AcDbXrecord
280
     1
270
     1
271
     1
  0
XRECORD
  5
5F0D
102
{ACAD_REACTORS
330
5F0C
102
}
330
5F0C
100
AcDbXrecord
280
     1
270
     1
271
     1
  0
XRECORD
  5
5F11
102
{ACAD_REACTORS
330
5F0C
102
}
330
5F0C
100
AcDbXrecord
280
     1
270
     1
271
     1
  0
XRECORD
  5
5F10
102
{ACAD_REACTORS
330
5F0C
102
}
330
5F0C
100
AcDbXrecord
280
     1
270
     1
271
     1
  0
XRECORD
  5
5F12
102
{ACAD_REACTORS
330
5F0C
102
}
330
5F0C
100
AcDbXrecord
280
     1
270
     1
271
     1
  0
XRECORD
  5
5F0F
102
{ACAD_REACTORS
330
5F0C
102
}
330
5F0C
100
AcDbXrecord
280
     1
270
     1
271
     1
  0
XRECORD
  5
8371
102
{ACAD_REACTORS
330
5F1C
102
}
330
5F1C
100
AcDbXrecord
280
     1
102
MATERIAL
148
0.0
149
0.0
149
0.0
 93
        0
 94
       63
282
     0
 72
     0
 77
     0
171
     0
175
     0
179
     0
273
     0
  0
XRECORD
  5
5F1E
102
{ACAD_REACTORS
330
5F1C
102
}
330
5F1C
100
AcDbXrecord
280
     1
270
     1
271
     1
  0
XRECORD
  5
5F1D
102
{ACAD_REACTORS
330
5F1C
102
}
330
5F1C
100
AcDbXrecord
280
     1
270
     1
271
     1
  0
XRECORD
  5
5F21
102
{ACAD_REACTORS
330
5F1C
102
}
330
5F1C
100
AcDbXrecord
280
     1
270
     1
271
     1
  0
XRECORD
  5
5F20
102
{ACAD_REACTORS
330
5F1C
102
}
330
5F1C
100
AcDbXrecord
280
     1
270
     1
271
     1
  0
XRECORD
  5
5F22
102
{ACAD_REACTORS
330
5F1C
102
}
330
5F1C
100
AcDbXrecord
280
     1
270
     1
271
     1
  0
XRECORD
  5
5F1F
102
{ACAD_REACTORS
330
5F1C
102
}
330
5F1C
100
AcDbXrecord
280
     1
270
     1
271
     1
  0
ACAD_PROXY_OBJECT
  5
836C
102
{ACAD_REACTORS
330
836B
102
}
330
836B
100
AcDbProxyObject
 90
      499
 91
      508
 95
  1310743
 70
     1
100
AcDbCellStyleMap
 90
        3
300
CELLSTYLE
  1
TABLEFORMAT_BEGIN
 90
        5
170
     1
 91
        0
 92
    32768
 62
   257
 93
        1
300
CONTENTFORMAT
  1
CONTENTFORMAT_BEGIN
 90
        0
 91
        0
 92
      512
 93
        0
300

 40
0.0
140
1.0
 94
        5
 62
     0
340
5F57
144
0.25
309
CONTENTFORMAT_END
171
     0
 94
        0
309
TABLEFORMAT_END
  1
CELLSTYLE_BEGIN
 90
        1
 91
        1
300
_TITLE
309
CELLSTYLE_END
300
CELLSTYLE
  1
TABLEFORMAT_BEGIN
 90
        5
170
     1
 91
        0
 92
        0
 62
   257
 93
        1
300
CONTENTFORMAT
  1
CONTENTFORMAT_BEGIN
 90
        0
 91
        0
 92
      512
 93
        0
300

 40
0.0
140
1.0
 94
        5
 62
     0
340
5F57
144
0.18
309
CONTENTFORMAT_END
171
     0
 94
        0
309
TABLEFORMAT_END
  1
CELLSTYLE_BEGIN
 90
        2
 91
        1
300
_HEADER
309
CELLSTYLE_END
300
CELLSTYLE
  1
TABLEFORMAT_BEGIN
 90
        5
170
     1
 91
        0
 92
        0
 62
   257
 93
        1
300
CONTENTFORMAT
  1
CONTENTFORMAT_BEGIN
 90
        0
 91
        0
 92
      512
 93
        0
300

 40
0.0
140
1.0
 94
        2
 62
     0
340
5F57
144
0.18
309
CONTENTFORMAT_END
171
     0
 94
        0
309
TABLEFORMAT_END
  1
CELLSTYLE_BEGIN
 90
        3
 91
        2
300
_DATA
309
CELLSTYLE_END
  0
XRECORD
  5
8468
102
{ACAD_REACTORS
330
836B
102
}
330
836B
100
AcDbXrecord
280
     1
102
ACAD_ROUNDTRIP_PRE2007_TABLESTYLE
 90
      512
 91
        0
  1

 92
      512
 93
        0
  2

 94
      512
 95
        0
  3

  0
ENDSEC
  0
EOF
